<?xml version="1.0" standalone="no"?>
<!DOCTYPE svg PUBLIC "-//W3C//DTD SVG 1.1//EN" "http://www.w3.org/Graphics/SVG/1.1/DTD/svg11.dtd" >
<svg xmlns="http://www.w3.org/2000/svg">
<metadata>
This is a custom SVG font generated by IcoMoon.
<iconset grid="16"></iconset>
</metadata>
<defs>
<font id="icomoon" horiz-adv-x="512" >
<font-face units-per-em="512" ascent="480" descent="-32" />
<missing-glyph horiz-adv-x="512" />
<glyph class="hidden" unicode="&#xf000;" d="M0,480L 512 -32L0 -32 z" horiz-adv-x="0" />
<glyph unicode="&#x67;" d="M 255.818-30.282c-140.42,0-254.629,114.242-254.629,254.646S 115.398,479.009, 255.818,479.009
		c 140.404,0, 254.646-114.226, 254.646-254.629S 396.222-30.282, 255.818-30.282z M 255.818,411.442c-103.143,0-187.078-83.935-187.078-187.095
		c0-103.176, 83.918-187.078, 187.078-187.078c 103.176,0, 187.078,83.885, 187.078,187.078C 442.897,327.507, 358.995,411.442, 255.818,411.442zM 151.172,177.837c 23.007,0, 41.654,18.647, 41.654,41.654s-18.647,41.654-41.654,41.654c-22.99,0-41.654-18.647-41.654-41.654
	S 128.165,177.837, 151.172,177.837z M 255.306,177.837c 23.007,0, 41.67,18.647, 41.67,41.654s-18.663,41.654-41.67,41.654
	c-22.99,0-41.654-18.647-41.654-41.654S 232.316,177.837, 255.306,177.837z M 359.457,177.837c 23.007,0, 41.654,18.647, 41.654,41.654
	s-18.647,41.654-41.654,41.654s-41.654-18.647-41.654-41.654S 336.434,177.837, 359.457,177.837z"  />
<glyph unicode="&#x76;" d="M 511.323,64.405L 511.323,447.381 L 0.677,447.381 L 0.677,64.405 l 223.414,0 l0-31.909 L 128.33,32.512 l0-31.909 l 255.339,0 l0,31.909 l-95.727,0 l0,31.909 L 511.323,64.405 z M 64.512,383.562
	L 447.505,383.562 l0-255.339 L 64.512,128.223 L 64.512,383.562 z"  />
<glyph unicode="&#x5b;" d="M 449.536,426.306l-35.179,0 l0-70.375 l-105.588,0 L 308.769,426.306 l-105.555,0 l0-70.375 l-105.555,0 L 97.676,426.306 L 62.481,426.306 c-19.357,0-35.196-15.839-35.196-35.179
	l0-387.055 c0-19.34, 15.839-35.196, 35.196-35.196l 387.055,0 c 19.357,0, 35.196,15.839, 35.196,35.196L 484.715,391.127 C 484.699,410.467, 468.876,426.306, 449.536,426.306z
	 M 132.856,4.104L 62.563,4.104 c-0.017,0.033-0.050,0.033-0.066,0.066l0,70.309 l 70.375,0 L 132.872,4.104 z M 132.856,109.642L 62.481,109.642 l0,70.375 l 70.375,0 L 132.856,109.642 z
	 M 132.856,215.213L 62.481,215.213 l0,70.359 l 70.375,0 L 132.856,215.213 z M 238.41,4.104l-70.392,0 l0,70.375 l 70.392,0 L 238.41,4.104 z M 238.41,109.642l-70.392,0 l0,70.375 l 70.392,0 L 238.41,109.642 z
	 M 238.41,215.213l-70.392,0 l0,70.359 l 70.392,0 L 238.41,215.213 z M 343.981,4.104l-70.392,0 l0,70.375 l 70.392,0 L 343.981,4.104 z M 343.981,109.642l-70.392,0 l0,70.375 l 70.392,0 
	L 343.981,109.642 z M 343.981,215.213l-70.392,0 l0,70.359 l 70.392,0 L 343.981,215.213 z M 449.536,4.137c-0.017-0.033-0.033-0.033-0.066-0.066l-70.309,0 l0,70.375 l 70.375,0 
	L 449.536,4.137 z M 449.536,109.642l-70.375,0 l0,70.375 l 70.375,0 L 449.536,109.642 z M 449.536,215.213l-70.375,0 l0,70.359 l 70.375,0 L 449.536,215.213 z M 168.035,461.502
	c0,9.711-7.878,17.59-17.59,17.59c-9.695,0-17.573-7.878-17.573-17.59l0-70.375 l 35.179,0 L 168.035,461.502 z M 379.161,461.502
	c0,9.711-7.878,17.59-17.59,17.59c-9.695,0-17.573-7.878-17.573-17.59l0-70.375 l 35.179,0 L 379.161,461.502 z"  />
<glyph unicode="&#x35;" d="M 467.918,174.666c-27.004,46.741-10.769,106.678, 36.236,133.896l-50.572,87.585c-14.435-8.473-31.232-13.329-49.152-13.329
	c-54.041,0-97.842,44.082-97.842,98.469l-101.062-0.017c 0.132-16.797-4.063-33.825-13.064-49.35C 165.475,385.164, 105.489,369.276, 58.418,396.362
	l-50.605-87.585c 14.534-8.275, 27.169-20.381, 36.104-35.906c 26.938-46.691, 10.818-106.446-36.022-133.781l 50.572-87.585
	c 14.369,8.39, 31.116,13.18, 48.921,13.18c 53.876,0, 97.577-43.801, 97.809-97.924l 101.095,0 c-0.033,16.615, 4.195,33.445, 13.064,48.838
	c 26.954,46.675, 86.809,62.596, 133.847,35.675l 50.572,87.585C 489.323,147.15, 476.837,159.224, 467.918,174.666z M 256,119.882
	c-57.542,0-104.167,46.658-104.167,104.151c0,57.526, 46.625,104.167, 104.167,104.167c 57.509,0, 104.167-46.642, 104.167-104.167
	C 360.151,166.524, 313.509,119.882, 256,119.882z"  />
<glyph unicode="&#x63;" d="M 164.088,379.433l 347.747,94.852l0-31.612 l0-63.24 l0-268.717 c0-43.636-49.515-79.030-110.642-79.030
	c-61.11,0-110.625,35.394-110.625,79.030c0,43.652, 49.515,79.030, 110.625,79.030c 16.979,0, 33.049-2.725, 47.418-7.614L 448.611,344.931 l-221.316-60.35l0-237.106 
	c0-43.619-49.532-79.030-110.642-79.030c-61.11,0-110.658,35.411-110.658,79.030c0,43.636, 49.532,79.046, 110.658,79.046
	c 16.979,0, 33.049-2.742, 47.401-7.614L 164.071,284.581 L 164.071,379.433 z"  />
<glyph unicode="&#x66;" d="M 64.017,32.429l 446.943,0 l0-63.851 L 0.165-31.422 L 0.165,479.405 l 63.851,0 L 64.017,32.429 z M 143.822,64.372c-26.459,0-47.897,21.438-47.897,47.897
	c0,26.475, 21.438,47.913, 47.897,47.913c 1.404,0, 2.808-0.083, 4.179-0.198l 51.481,85.785c-4.938,7.498-7.779,16.483-7.779,26.129
	c0,26.459, 21.438,47.897, 47.897,47.897c 26.475,0, 47.897-21.438, 47.897-47.897c0-9.629-2.857-18.63-7.763-26.129l 51.464-85.785
	c 1.387,0.116, 2.791,0.198, 4.195,0.198c 1.074,0, 2.131-0.050, 3.171-0.116l 84.959,148.695c-5.236,7.697-8.324,16.979-8.324,26.987
	c0,26.459, 21.454,47.897, 47.897,47.897c 26.475,0, 47.897-21.454, 47.897-47.897s-21.421-47.897-47.897-47.897c-1.041,0-2.131,0.050-3.171,0.116
	l-84.959-148.695c 5.236-7.697, 8.324-16.995, 8.324-27.004c0-26.459-21.421-47.897-47.897-47.897c-26.442,0-47.897,21.438-47.897,47.897
	c0,9.645, 2.874,18.63, 7.779,26.162l-51.497,85.768c-1.371-0.116-2.775-0.215-4.179-0.215c-1.404,0-2.808,0.099-4.179,0.215
	l-51.481-85.785c 4.938-7.515, 7.779-16.483, 7.779-26.145C 191.719,85.793, 170.265,64.372, 143.822,64.372z"  />
<glyph unicode="&#x39;" d="M 507.541,29.589l-139.875,121.41c 59.838,81.507, 51.679,197.929-22.957,270.782C 263.647,500.942, 134.458,499.142, 56.733,417.784
	C-20.992,336.425-18.25,205.865, 62.811,126.72c 73.1-71.35, 185.377-76.883, 263.697-17.59l 126.068-137.117c 4.773-5.252, 12.651-5.335, 17.524-0.297
	l 38.301,40.134C 513.272,16.97, 512.908,24.931, 507.541,29.589z M 317.357,167.151c-59.887-62.398-159.463-63.802-221.927-3.072
	C 32.966,224.809, 30.902,325.029, 90.773,387.427c 59.871,62.447, 159.414,63.835, 221.878,3.072C 375.131,329.802, 377.212,229.566, 317.357,167.151z"  />
<glyph unicode="&#x2a;" d="M 45.698,207.329c0,0-26.788,214.992, 209.34,214.992c0,0, 227.178,4.198, 205.899-214.992c0,0, 13.373-4.806, 21.367-10.622
		c 10.534-7.7, 18.999-18.357, 18.999-18.357s 51.050,131.495-79.367,239.575c0,0-161.055,127.727-334.848,0c0,0-114.722-78.138-79.374-239.575
		c0,0, 7.154,11.482, 18.521,19.763C 34.208,203.916, 45.698,207.329, 45.698,207.329zM 0.396,78.831c0-120.218, 127.836-106.161, 127.836-106.161L 128.232,195.014 C-7.769,195.014, 0.396,78.831, 0.396,78.831z
		 M 87.491,14.121c0,0-48.108,5.461-48.108,69.461c0,0-4.622,58.532, 48.108,63.549L 87.491,14.121 zM 381.215,195.014l0-222.351 c0,0, 127.829-14.056, 127.829,106.161C 509.037,78.831, 517.216,195.014, 381.215,195.014z
		 M 421.949,147.125c 52.722-5.011, 48.087-63.549, 48.087-63.549c0-63.993-48.087-69.461-48.087-69.461L 421.949,147.125 z"  />
<glyph unicode="&#x38;" d="M 256,128.679c 54.054,0, 111.391,35.642, 111.391,79.578L 367.384,399.281 c0,43.936-58.593,79.578-111.391,79.578
		c-51.343,0-111.384-35.649-111.384-79.578l0-191.024 C 144.616,164.321, 201.155,128.679, 256,128.679z M 191.857,378.399
		c0,34.707, 30.754,50.156, 64.137,50.156c 34.324,0, 64.137-15.449, 64.137-50.156l0-150.903 c0-34.7-28.993-50.156-64.137-50.156
		c-35.663,0-64.137,15.449-64.137,50.156L 191.857,378.399 zM 399.203,256.024l0-47.766 c0-61.536-70.533-113.589-143.21-113.589c-72.015,0-143.217,52.053-143.217,113.589l0,47.766 
		l-44.558,0 l0-47.766 c0-85.757, 87.511-147.169, 159.136-155.081l0-45.486 L 144.616,7.683 l0-38.175 l 76.384,0 l 69.98,0 l 76.39,0 l0,38.175 L 278.282,7.683 l0,45.486 
		c 71.625,7.912, 165.492,63.754, 165.492,155.081l0,47.766 L 399.203,256.024 z"  />
<glyph unicode="&#x68;" d="M 447.113,207.78l0-207.039 L 64.881,0.741 L 64.881,207.78 l 47.78,0 l0-159.266 l 286.686,0 L 399.34,207.78 L 447.113,207.78 z M 510.819,200.605L 256,398.387
	L 1.174,200.605l0,64.71 L 256,463.118l 254.819-197.803L 510.826,200.605 z"  />
<glyph unicode="&#x6e;" d="M 53.255,276.627l0,34.7 L 1.201,311.334 L 1.201,137.8 l 52.053,0 l0,34.707 l 69.427-19.818c0-0.28-0.014-0.532-0.014-0.819l0-48.77 
			c0-19.081, 15.613-34.693, 34.7-34.693l 69.414,0 c 19.094,0, 34.693,15.626, 34.693,34.693l0,9.919 l 173.534-49.582L 435.016,385.71 L 53.255,276.627z
			 M 226.707,103.1L 157.375,103.1 l0,39.677 l 69.332-19.831L 226.707,103.1 z M 389.448,120.453L 53.234,214.804l0,19.517 l 336.207,91.109L 389.448,120.453 zM 469.716,395.622L 469.716,53.518L 512,41.441L 512,407.699 	z"  />
<glyph unicode="&#x5d;" d="M 1.371,480l0-512 l 426.661,256L 1.371,480z M 73.348,367.971l 240.012-143.971L 73.348,79.979L 73.348,367.971 z" horiz-adv-x="429.419"  />
<glyph unicode="&#x5e;" d="M 477.714,480.274L 107.429,480.274 C 48.329,480.274,0,431.927,0,372.882l0-404.59 l 109.733,109.751l 142.537,0 l 225.445,0 
	c 59.118,0, 107.429,48.366, 107.429,107.447L 585.143,372.882 C 585.143,431.927, 536.832,480.274, 477.714,480.274z M 512,185.454c0-18.56-15.726-34.322-34.304-34.322
	L 73.143,151.131 L 73.143,372.882 c0,18.56, 15.707,34.286, 34.286,34.286l 370.304,0 c 18.542,0, 34.286-15.707, 34.286-34.286L 512.018,185.454 L 512,185.454z M 146.286,260.864
	c0-20.206, 16.384-36.59, 36.571-36.59c 20.206,0, 36.59,16.366, 36.59,36.59c0,20.187-16.366,36.59-36.59,36.59
	C 162.67,297.454, 146.286,281.051, 146.286,260.864z M 256,260.864c0-20.206, 16.366-36.59, 36.571-36.59s 36.608,16.366, 36.608,36.59
	c0,20.187-16.384,36.59-36.608,36.59S 256,281.051, 256,260.864z M 365.733,260.864c0-20.206, 16.347-36.59, 36.571-36.59
	s 36.571,16.366, 36.571,36.59c0,20.187-16.347,36.59-36.571,36.59S 365.733,281.051, 365.733,260.864z" horiz-adv-x="585.143"  />
<glyph unicode="&#x5f;" d="M 172.356,478.891L 172.356,439.671 L 83.388,427.179l 5.769-41.131L 2.458,361.165l 112.384-391.953l 346.197,99.294l 18.944,2.645l 66.133,0 l0,407.757 
	L 172.356,478.891L 172.356,478.891z M 135.97,7.305L 40.55,340.070L 93.457,355.243l 46.66-331.861l 101.837,14.319L 135.97,7.305z M 166.349,58.163
	L 118.17,400.964l 54.204,7.612l0-337.408 l 86.409,0 L 166.349,58.163z M 512.154,105.114l-305.818,0 l0,339.797 l 305.818,0 L 512.154,105.114 z M 308.275,376.951l 169.899-101.939l-169.899-101.939L 308.275,376.951 z" horiz-adv-x="546.133"  />
<glyph unicode="&#x60;" d="M 448.149,416.198L 320.495,416.198 c-2.824,0-10.339-1.338-19.324-5.087c-8.985-3.716-15.261-8.060-17.259-10.058l-211.208-211.175
	l 149.124-149.124l 211.192,211.192c 1.998,1.998, 6.342,8.258, 10.058,17.259c 3.733,9.018, 5.070,16.516, 5.070,19.324L 448.149,416.198 z M 464.103,480.017
	L 464.103,480.017c 26.343,0, 47.88-21.554, 47.88-47.88l0-143.674 c0-26.327-15.211-63.108-33.842-81.722L 255.67-15.682
	c-9.315-9.332-21.603-13.973-33.842-13.973c-12.288,0-24.543,4.658-33.875,13.973L 16.285,155.987c-18.63,18.63-18.63,49.069,0,67.7
	L 238.757,446.158c 18.63,18.63, 55.379,33.858, 81.738,33.858L 464.103,480.017 z M 320.875,336.673c0-26.393, 21.372-47.781, 47.765-47.781s 47.781,21.372, 47.781,47.781
	c0,26.393-21.388,47.781-47.781,47.781C 342.247,384.471, 320.875,363.082, 320.875,336.673z"  />
<glyph unicode="&#x30;" d="M 487.655,191.031c 1.406,10.4, 2.215,20.973, 2.215,31.736c0,129.156-105.271,233.872-235.103,233.872
	c-12.904,0-25.555-1.060-37.866-3.080c-22.073,14.384-48.342,22.767-76.613,22.767C 62.766,476.326,0,413.518,0,336.020
	c0-28.198, 8.299-54.394, 22.59-76.389c-1.925-12.017-2.909-24.323-2.909-36.86c0-129.176, 105.217-233.881, 235.085-233.881
	c 14.657,0, 28.927,1.426, 42.796,3.932c 21.55-13.369, 46.934-21.148, 74.146-21.148c 77.502,0, 140.293,62.824, 140.293,140.314
	C 511.998,141.281, 503.041,168.516, 487.655,191.031z M 276.74,50.404c-74.706-3.891-109.665,12.637-141.69,42.691
	c-35.765,33.568-21.398,71.855, 7.74,73.801c 29.122,1.945, 46.608-33.012, 62.151-42.736c 15.524-9.688, 74.593-31.76, 105.794,3.908
	c 33.975,38.828-22.594,58.92-64.059,65.002c-59.203,8.766-133.95,40.793-128.135,103.907c 5.817,63.074, 53.582,95.414, 103.85,99.976
	c 64.077,5.817, 105.791-9.707, 138.785-37.86c 38.151-32.529, 17.508-68.894-6.799-71.82c-24.211-2.909-51.404,53.504-104.791,54.352
	c-55.027,0.864-92.217-57.261-24.286-73.784c 67.966-16.505, 140.75-23.286, 166.961-85.417
	C 418.49,120.287, 351.507,54.299, 276.74,50.404z"  />
<glyph unicode="&#x48;" d="M 416,416L 96,416 c-52.8,0-96-43.2-96-96l0-192 c0-52.8, 43.2-96, 96-96l 320,0 c 52.8,0, 96,43.2, 96,96L 512,320 C 512,372.8, 468.8,416, 416,416z
	 M 192,96L 192,352 l 160-128L 192,96z"  />
<glyph unicode="&#x5c;" d="M 400,464c 52.944,0, 96-43.072, 96-96l0-96 l-64,0 L 432,368 c0,17.664-14.336,32-32,32l-64,0 c-17.664,0-32-14.336-32-32l0-96 l 8,0 
	c 13.2,0, 24-10.8, 24-24l0-240 c0-13.2-10.8-24-24-24l-272,0 C 26.8-16, 16-5.2, 16,8l0,240 C 16,261.2, 26.8,272, 40,272L 240,272 L 240,368 
	c0,52.928, 43.056,96, 96,96L 400,464 z"  />
<glyph unicode="&#x4a;" d="M 276.928,416.304c0,0-89.328,0-119.104,0c-53.392,0-103.664-40.448-103.664-87.328c0-47.856, 36.4-86.496, 90.72-86.496
	c 3.792,0, 7.456,0.048, 11.040,0.336c-3.536-6.752-6.048-14.336-6.048-22.256c0-13.312, 7.152-24.096, 16.224-32.912
	c-6.848,0-13.44-0.192-20.656-0.192c-66.128-0.016-117.040-42.144-117.040-85.824c0-43.008, 55.792-69.92, 121.952-69.92
	c 75.392,0, 117.024,42.784, 117.024,85.808c0,34.48-10.176,55.136-41.648,77.408c-10.768,7.616-31.344,26.144-31.344,37.024
	c0,12.768, 3.648,19.056, 22.864,34.064c 19.696,15.392, 33.648,37.040, 33.648,62.208c0,29.952-13.344,59.152-38.4,68.8l 37.776,0 L 276.928,416.304z
	 M 235.312,124.944c 0.944-3.984, 1.472-8.096, 1.472-12.288c0-34.752-22.4-61.92-86.672-61.92c-45.728,0-78.736,28.96-78.736,63.696
	c0,34.064, 40.96,62.416, 86.672,61.92c 10.672-0.112, 20.624-1.824, 29.632-4.752C 212.496,154.336, 230.304,144.576, 235.312,124.944z M 162.128,254.592
	c-30.672,0.928-59.84,34.32-65.152,74.624c-5.28,40.304, 15.28,71.12, 45.968,70.224c 30.688-0.928, 59.84-33.264, 65.152-73.552
	C 213.376,285.584, 192.8,253.664, 162.128,254.592z M 398.256,330.96L 398.256,416.304 l-28.448,0 l0-85.344 l-85.344,0 l0-28.448 l 85.344,0 l0-85.344 l 28.448,0 l0,85.344 l 85.344,0 L 483.6,330.96 
	L 398.256,330.96 z"  />
<glyph unicode="&#x4c;" d="M 362.848,401.552c-44.384,0-84-23.632-106.832-58.064c-22.72,34.816-62.16,58.064-106.88,58.064
			c-70.4,0-127.472-57.088-127.472-127.504c0-39.6, 21.472-78.464, 49.824-101.84c 1.168-1.408, 72.384-67.088, 135.168-124.944l0,93.44 
			c0,63.808, 97.568,63.376, 97.568,0l0-94.256 l 128.256,120.912c 31.44,25.472, 57.856,62.032, 57.856,106.688C 490.336,344.448, 433.296,401.552, 362.848,401.552z
			 M 141.488,173.52c-1.728-2-4.176-3.008-6.624-3.008c-2.064,0-4.16,0.752-5.84,2.256c-38.064,33.712-57.376,68.944-57.376,104.656
			l0,0.4 c0,30.72, 18.736,65.6, 43.584,81.216c 4.112,2.56, 9.584,1.312, 12.176-2.816c 2.592-4.128, 1.344-9.6-2.8-12.192
			c-19.776-12.4-35.28-41.504-35.28-66.224l0-0.4 c0-30.432, 17.296-61.216, 51.408-91.44C 144.384,182.736, 144.736,177.136, 141.488,173.52z
			 M 198.32,206.272c-1.632-2.88-4.624-4.496-7.728-4.496c-1.44,0-2.944,0.336-4.304,1.12c-25.792,14.464-43.168,42.848-43.296,70.688
			l0,0.288 c 0.096,26.496, 14.704,50.592, 38.192,62.976c 4.32,2.256, 9.664,0.592, 11.936-3.744c 2.272-4.32, 0.608-9.664-3.712-11.936
			c-17.696-9.28-28.704-27.472-28.768-47.408c 0.064-21.744, 13.824-44, 34.272-55.44C 199.2,215.92, 200.688,210.544, 198.32,206.272z
			 M 256.304,228.864c-21.104,0-38.272,17.12-38.272,38.256c0,21.152, 17.152,38.256, 38.272,38.256c 21.184,0, 38.304-17.088, 38.304-38.256
			C 294.608,245.984, 277.472,228.864, 256.304,228.864z M 325.696,202.992c-1.36-0.752-2.832-1.088-4.304-1.088
			c-3.088,0-6.096,1.632-7.712,4.496c-2.384,4.256-0.864,9.664, 3.392,12c 20.448,11.44, 34.208,33.712, 34.272,55.44
			c-0.064,19.968-11.072,38.128-28.752,47.472c-4.336,2.256-5.984,7.568-3.712,11.904c 2.272,4.32, 7.616,5.968, 11.936,3.712
			c 23.488-12.336, 38.096-36.464, 38.192-62.976l0-0.256 C 368.88,245.824, 351.504,217.456, 325.696,202.992z M 440.352,277.52
			c0-35.712-19.312-70.944-57.36-104.656c-1.68-1.472-3.776-2.224-5.872-2.224c-2.432,0-4.864,0.992-6.624,3.008
			c-3.232,3.632-2.896,9.184, 0.752,12.432c 34.112,30.224, 51.424,61.024, 51.424,91.44l0,0.432 c0,24.72-15.488,53.808-35.296,66.224
			c-4.128,2.56-5.36,8.032-2.784,12.16s 8.032,5.408, 12.176,2.816c 24.832-15.6, 43.584-50.496, 43.584-81.184L 440.352,277.52 z"  />
<glyph unicode="&#x4f;" d="M 448,320c-17.6,0-32-14.4-32-32l0-128 c0-17.6, 14.4-32, 32-32s 32,14.4, 32,32l0,128 C 480,305.6, 465.6,320, 448,320z M 64,320c-17.6,0-32-14.4-32-32l0-128 
	c0-17.6, 14.4-32, 32-32s 32,14.4, 32,32l0,128 C 96,305.6, 81.6,320, 64,320z M 112,112c0-26.512, 21.488-48, 48-48l 16,0 l0-64 c0-17.6, 14.4-32, 32-32s 32,14.4, 32,32l0,64 l 32,0 l0-64 
	c0-17.6, 14.4-32, 32-32s 32,14.4, 32,32l0,64 l 16,0 c 26.512,0, 48,21.488, 48,48L 400,288 L 112,288 L 112,112 z M 315.296,435.248l 20.256,38.912c 1.024,1.936, 0.272,4.368-1.68,5.376
	c-1.952,1.008-4.384,0.272-5.392-1.68l-20.56-39.488C 291.792,444.576, 274.304,448, 256,448s-35.792-3.424-51.904-9.664l-20.544,39.52
	c-1.008,1.952-3.44,2.72-5.392,1.696c-1.952-1.024-2.72-3.44-1.68-5.408l 20.256-38.912C 151.408,414.736, 118.592,371.472, 112.912,320l 286.24,0 
	C 393.424,371.456, 360.608,414.736, 315.296,435.248z M 192,344.8c-12.816,0-23.2,10.384-23.2,23.2S 179.184,391.2, 192,391.2S 215.2,380.816, 215.2,368
	S 204.816,344.8, 192,344.8z M 320,344.8c-12.816,0-23.2,10.384-23.2,23.2S 307.184,391.2, 320,391.2S 343.2,380.816, 343.2,368S 332.816,344.8, 320,344.8z"  />
<glyph unicode="&#x50;" d="M 395.744,207.952c-0.64,64.864, 52.88,95.936, 55.264,97.488c-30.096,44.016-76.944,50.032-93.632,50.736
	c-39.872,4.032-77.792-23.472-98.032-23.472c-20.192,0-51.408,22.896-84.48,22.272c-43.456-0.624-83.536-25.248-105.904-64.192
	c-45.136-78.336-11.568-194.4, 32.448-257.968c 21.504-31.088, 47.152-66.032, 80.816-64.784c 32.416,1.296, 44.688,20.976, 83.872,20.976
	c 39.2,0, 50.208-20.976, 84.528-20.336c 34.88,0.656, 56.992,31.696, 78.352,62.896c 24.688,36.096, 34.864,71.024, 35.456,72.816
	C 463.68,104.736, 396.416,130.512, 395.744,207.952z M 331.28,398.256C 349.152,419.92, 361.216,450, 357.92,480c-25.744-1.056-56.96-17.152-75.408-38.768
	c-16.576-19.184-31.072-49.792-27.184-79.216C 284.064,359.744, 313.392,376.608, 331.28,398.256z"  />
<glyph unicode="&#x28;" d="M 445.984,238.912c-9.040,0-17.664-1.76-25.536-4.944C 415.2,291.152, 365.296,336, 304.448,336
	c-14.912,0-29.344-2.816-42.176-7.6C 257.312,326.56, 256,324.656, 256,320.976l0-201.376 c0-3.872, 3.12-7.104, 7.056-7.504
	c 0.176,0, 181.76-0.096, 182.944-0.096C 482.464,112, 512,140.4, 512,175.44S 482.432,238.912, 445.984,238.912z M 200,112l 16,0 l 8,112.112L 216,336l-16,0 
	L 192,224.112L 200,112z M 152,112l-16,0 L 128,193.376L 136,272l 16,0 l 8-80L 152,112z M 72,112l 16,0 L 96,176l-8,64l-16,0 L 64,176L 72,112z M 8,144l 16,0 L 32,176l-8,32l-16,0 
	L0,176L 8,144z"  />
<glyph unicode="&#x52;" d="M 64,224c0-74.016, 44.16-137.984, 108.208-168.288L 80.624,300.112C 69.968,276.848, 64,251.12, 64,224z M 385.616,233.44
	c0,23.12-8.512,39.12-15.808,51.568c-9.728,15.408-18.88,28.448-18.88,43.872c0,17.184, 13.376,33.184, 32.256,33.184
	c 0.848,0, 1.664-0.096, 2.48-0.16C 351.504,392.368, 305.984,411.008, 256,411.008c-67.072,0-126.096-33.536-160.416-84.304
	C 100.096,326.56, 104.336,326.464, 107.936,326.464c 20.080,0, 51.168,2.368, 51.168,2.368c 10.336,0.592, 11.568-14.224, 1.232-15.408
	c0,0-10.4-1.184-21.968-1.776l 69.904-202.56l 42.016,122.72l-29.888,79.824c-10.336,0.592-20.16,1.76-20.16,1.76
	c-10.336,0.592-9.12,16, 1.216,15.408c0,0, 31.696-2.352, 50.56-2.352c 20.080,0, 51.168,2.352, 51.168,2.352c 10.336,0.592, 11.568-14.224, 1.216-15.408
	c0,0-10.416-1.184-21.968-1.76l 69.408-200.976l 19.152,62.336C 379.296,198.88, 385.616,217.44, 385.616,233.44z M 259.376,207.664L 201.76,44.624
	c 17.184-4.944, 35.392-7.632, 54.24-7.632c 22.336,0, 43.808,3.76, 63.76,10.592c-0.512,0.816-0.992,1.664-1.376,2.592L 259.376,207.664z
	 M 424.48,313.712c 0.832-5.968, 1.296-12.336, 1.296-19.248c0-18.96-3.664-40.304-14.608-66.976l-58.64-165.12C 409.616,94.784, 448,155.024, 448,224
	C 448,256.512, 439.472,287.088, 424.48,313.712z M 256,480C 114.608,480,0,365.392,0,224s 114.608-256, 256-256s 256,114.608, 256,256S 397.392,480, 256,480z M 256,0
	C 132.288,0, 32,100.288, 32,224S 132.288,448, 256,448s 224-100.288, 224-224S 379.712,0, 256,0z"  />
<glyph unicode="&#x55;" d="M0,224c0-61.856, 50.128-112, 112-112c 61.84,0, 112,50.144, 112,112s-50.16,112-112,112C 50.128,336,0,285.856,0,224z M 288,224
	c0-61.856, 50.128-112, 112-112c 61.84,0, 112,50.144, 112,112s-50.16,112-112,112C 338.128,336, 288,285.856, 288,224z"  />
<glyph unicode="&#x47;" d="M 287.968,256l0-117.088 c0-29.696-0.368-46.832, 2.768-55.248c 3.12-8.368, 10.96-17.056, 19.488-22.096
	c 11.344-6.8, 24.288-10.192, 38.88-10.192c 25.904,0, 41.216,3.424, 66.864,20.256l0-76.96 l0,0c-21.856-10.304-40.928-16.304-58.656-20.448
	C 339.536-29.92, 320.368-32, 299.744-32c-23.408,0-37.216,2.944-55.184,8.832c-17.984,5.936-33.344,14.4-46.016,25.264
	c-12.72,10.976-21.52,22.608-26.432,34.944c-4.912,12.304-7.344,30.192-7.344,53.616L 164.768,270.192 L 96.048,270.192 L 96.048,342.688 
	C 116.16,349.216, 138.624,358.592, 152.944,370.768c 14.368,12.24, 25.872,26.864, 34.56,43.968C 196.192,431.808, 202.16,453.6, 205.424,480l 82.544,0 l0-128 l 127.984,0 l0-96 L 287.968,256 
	z"  />
<glyph unicode="&#x57;" d="M0,325.824l 20.8-27.28c0,0, 42.896,33.808, 57.184,16.912c 14.288-16.912, 68.864-220.976, 87.088-258.64
	c 15.888-32.992, 59.744-76.656, 107.84-45.488c 48.064,31.168, 207.92,167.648, 236.528,328.8c 28.592,161.12-192.352,127.36-215.744-12.992
	c 58.48,35.104, 89.696-14.288, 59.776-70.208c-29.872-55.872-57.184-92.304-71.472-92.304c-14.272,0-25.248,37.376-41.6,102.72
	C 223.52,334.896, 223.616,456.576, 153.36,442.784C 87.088,429.824,0,325.824,0,325.824z"  />
<glyph unicode="&#x58;" d="M 416,416L 96,416 c-52.8,0-96-43.2-96-96l0-192 c0-52.8, 43.2-96, 96-96l 320,0 c 52.8,0, 96,43.2, 96,96L 512,320 C 512,372.8, 468.8,416, 416,416z M 480,128
	c0-16.992-6.688-33.024-18.832-45.168S 432.992,64, 416,64L 96,64 c-16.992,0-33.024,6.688-45.168,18.832S 32,111.008, 32,128L 32,320 
	c0,16.992, 6.688,33.024, 18.832,45.168S 79.008,384, 96,384l 320,0 c 16.992,0, 33.024-6.688, 45.168-18.832S 480,336.992, 480,320L 480,128 z M 192,96l 160,128L 192,352L 192,96 z"  />
<glyph unicode="&#x2c;" d="M 512,382.8c-18.832-8.336-39.088-14-60.336-16.544c 21.68,13.008, 38.336,33.584, 46.208,58.112
	c-20.32-12.032-42.784-20.784-66.704-25.488c-19.168,20.416-46.464,33.168-76.672,33.168c-58.016,0-105.040-47.024-105.040-105.024
	c0-8.256, 0.944-16.272, 2.72-23.936C 164.864,307.456, 87.456,349.28, 35.664,412.832c-9.040-15.536-14.24-33.568-14.24-52.816
	c0-36.432, 18.544-68.592, 46.736-87.44c-17.216,0.528-33.408,5.248-47.584,13.12c-0.016-0.432-0.016-0.88-0.016-1.312
	c0-50.912, 36.208-93.344, 84.256-103.024C 96,178.992, 86.72,177.696, 77.152,177.696c-6.768,0-13.344,0.656-19.76,1.872
	c 13.376-41.712, 52.16-72.096, 98.128-72.944c-35.952-28.192-81.248-44.976-130.448-44.976c-8.48,0-16.848,0.496-25.056,1.472
	c 46.48-29.808, 101.696-47.184, 161.024-47.184c 193.2,0, 298.864,160.064, 298.864,298.88c0,4.56-0.096,9.088-0.304,13.6
	C 480.112,343.248, 497.936,361.728, 512,382.8z"  />
<glyph unicode="&#x2b;" d="M 296.304-32l-95.936,0 L 200.368,224 l-64,0 l0,88.224 l 64,0.032l-0.096,51.968C 200.256,436.224, 219.76,480, 304.544,480l 70.592,0 l0-88.256 l-44.112,0 
	c-33.008,0-34.608-12.32-34.608-35.344l-0.128-44.16l 79.344,0 l-9.36-88.224L 296.352,224L 296.304-32z"  />
<glyph unicode="&#x36;" d="M 464,480L 48,480 C 21.6,480,0,458.4,0,432l0-288 c0-26.4, 21.6-48, 48-48l 80,0 l0-128 l 153.6,128L 464,96 c 26.4,0, 48,21.6, 48,48L 512,432 C 512,458.4, 490.4,480, 464,480z
	 M 365.584,260.608l-82.192,0 l0-82.208 l-54.8,0 l0,82.208 L 146.416,260.608 l0,54.784 l 82.176,0 L 228.592,397.584 l 54.8,0 l0-82.192 l 82.192,0 L 365.584,260.608 z"  />
<glyph unicode="&#x27;" d="M 436.992,324.992l-216-216l-80,0 l0,80 l 216,216L 436.992,324.992z M 464,351.984l-80,80l 28,28.032
	c 9.344,9.344, 24.624,9.344, 33.968,0l 46.032-46.064c 9.344-9.344, 9.344-24.592,0-33.936L 464,351.984z M 396.992,211.2l0-166.224 l-320,0 l0,320 l 176,0 l 64,64l-256,0 
	c-26.384,0-48-21.6-48-48l0-352 c0-26.4, 21.616-48, 48-48l 352,0 c 26.384,0, 48,21.6, 48,48l0,239.68 L 396.992,211.2z"  />
<glyph unicode="&#x29;" d="M 256,464C 123.456,464, 16,356.544, 16,224s 107.456-240, 240-240s 240,107.456, 240,240S 388.544,464, 256,464z M 391.776,144
	c 4.304,20.224, 7.008,41.68, 7.872,64l 63.728,0 c-1.664-22.096-6.816-43.552-15.344-64L 391.776,144 z M 120.224,304c-4.304-20.224-7.008-41.68-7.872-64
	L 48.608,240 c 1.664,22.096, 6.816,43.552, 15.344,64L 120.224,304 z M 359.024,304c 4.784-20.48, 7.68-41.92, 8.624-64L 272,240 l0,64 L 359.024,304 z M 272,336L 272,429.664 
	c 7.296-2.128, 14.528-5.664, 21.632-10.688c 13.28-9.376, 26-23.792, 36.752-41.728c 7.456-12.384, 13.872-26.208, 19.248-41.248L 272,336z M 181.632,377.248
	c 10.752,17.936, 23.472,32.352, 36.752,41.728C 225.472,424, 232.704,427.552, 240,429.664L 240,336 l-77.632,0 C 167.744,351.024, 174.176,364.848, 181.632,377.248z M 240,304l0-64 
	L 144.336,240 c 0.944,22.080, 3.824,43.52, 8.624,64L 240,304 z M 63.952,144c-8.528,20.448-13.664,41.904-15.344,64l 63.728,0 c 0.88-22.32, 3.584-43.776, 7.872-64L 63.952,144 
	z M 144.336,208L 240,208 l0-64 L 152.976,144 C 148.176,164.48, 145.28,185.92, 144.336,208z M 240,112l0-93.664 c-7.296,2.128-14.528,5.664-21.632,10.688
	c-13.28,9.376-26,23.792-36.752,41.728c-7.456,12.384-13.872,26.208-19.248,41.248L 240,112z M 330.368,70.752
	c-10.752-17.936-23.472-32.352-36.752-41.728c-7.088-4.992-14.336-8.56-21.632-10.688L 271.984,112 l 77.632,0 C 344.256,96.976, 337.824,83.168, 330.368,70.752z
	 M 272,144l0,64 l 95.664,0 c-0.944-22.080-3.824-43.52-8.624-64L 272,144 z M 399.68,240c-0.896,22.32-3.6,43.776-7.872,64l 56.256,0 
	c 8.528-20.448, 13.68-41.904, 15.344-64L 399.68,240 z M 431.328,336l-47.952,0 c-9.312,29.376-22.192,55.152-37.664,75.712
	c 21.248-10.192, 40.528-23.808, 57.344-40.656C 413.824,360.336, 423.264,348.608, 431.328,336z M 108.944,371.056c 16.816,16.848, 36.096,30.464, 57.344,40.656
	C 150.816,391.152, 137.952,365.376, 128.624,336L 80.672,336 C 88.736,348.608, 98.176,360.336, 108.944,371.056z M 80.672,112l 47.952,0 c 9.328-29.376, 22.192-55.152, 37.664-75.712
	c-21.248,10.192-40.528,23.808-57.344,40.656C 98.176,87.664, 88.736,99.392, 80.672,112z M 403.056,76.944c-16.816-16.848-36.096-30.464-57.344-40.656
	c 15.472,20.56, 28.336,46.336, 37.664,75.712l 47.952,0 C 423.264,99.392, 413.824,87.664, 403.056,76.944z"  />
<glyph unicode="&#x3e;" d="M 68.144,104.528C 30.544,104.528,0,73.856,0,36.496c0-37.6, 30.544-67.904, 68.144-67.904
	c 37.728,0, 68.256,30.32, 68.256,67.904C 136.384,73.872, 105.888,104.528, 68.144,104.528z M 0.080,306.032l0-98.128 c 63.888,0, 123.984-24.992, 169.232-70.256
	c 45.2-45.152, 70.144-105.536, 70.144-169.664l 98.56,0 C 338,154.4, 186.352,306.032, 0.080,306.032z M 0.208,480l0-98.192 
	C 228.080,381.808, 413.584,196.16, 413.584-32L 512-32 C 512,250.256, 282.352,480, 0.208,480z"  />
<glyph unicode="&#x4e;" d="M 128,160c0,0, 29.408,96, 192,96l0-96 l 192,128L 320,416l0-96 C 192,320, 128,240.16, 128,160z M 352,96L 64,96 L 64,288 l 62.944,0 
	c 5.040,5.952, 10.448,11.664, 16.256,17.088c 21.984,20.592, 48.288,36.32, 78.064,46.912L0,352 l0-320 l 416,0 l0,134.32 l-64-42.656L 352,96 z"  />
<glyph unicode="&#x2f;" d="M 418,448L 94,448 C 42.304,448,0,405.68,0,354L0,0 l 96,96l 124.752,0 l 197.248,0 C 469.696,96, 512,138.32, 512,190L 512,354 
	C 512,405.68, 469.696,448, 418,448z M 160,224c-17.68,0-32,14.32-32,32s 14.32,32, 32,32s 32-14.32, 32-32S 177.68,224, 160,224z M 256,224c-17.68,0-32,14.32-32,32
	s 14.32,32, 32,32s 32-14.32, 32-32S 273.68,224, 256,224z M 352,224c-17.68,0-32,14.32-32,32s 14.32,32, 32,32s 32-14.32, 32-32S 369.68,224, 352,224z"  />
<glyph unicode="&#x2e;" d="M 457.152,376.336C 510.416,346.064, 512,313.664, 512,291.008l0-3.408 c0-5.152-4.464-9.408-9.92-9.408l-120.16,0 
	c-5.456,0-9.92,4.256-9.92,9.408l0,11.472 c0,28.592-27.36,33.168-42.448,35.6c-15.088,2.432-52.624,4.784-73.488,4.784
	c-0.016,0-0.032,0-0.064,0s-0.048,0-0.080,0c-20.848,0-58.384-2.336-73.472-4.784C 167.36,332.24, 140,327.664, 140,299.056l0-11.472 
	c0-5.152-4.464-9.408-9.92-9.408L 9.92,278.176 c-5.456,0-9.92,4.256-9.92,9.408l0,3.408 c0,22.656, 1.584,55.056, 54.848,85.344
	C 118.192,412.368, 208.784,416, 255.92,416C 255.952,415.968, 255.968,415.952, 256,415.92C 256.016,415.952, 256.048,415.968, 256.064,416
	C 303.216,416, 393.808,412.368, 457.152,376.336z M 256,288c-28.368,0-87.44-2.128-117.456-38.512C 108.528,213.104, 33.456,32, 100.4,32s 125.456,0, 155.6,0
	s 88.64,0, 155.6,0s-8.128,181.104-38.144,217.488C 343.44,285.872, 284.368,288, 256,288z M 256,96c-35.344,0-64,28.656-64,64s 28.656,64, 64,64s 64-28.656, 64-64
	S 291.344,96, 256,96z"  />
<glyph unicode="&#x2d;" d="M 480,416L 32,416 C 14.4,416,0,401.6,0,384l0-320 c0-17.6, 14.4-32, 32-32l 448,0 c 17.6,0, 32,14.4, 32,32L 512,384 C 512,401.6, 497.6,416, 480,416z M 448,352l0-23.008 
	l-192-113.136L 64,328.992L 64,352 L 448,352 z M 64,96L 64,273.28 l 192-113.136l 192,113.136L 448,96 L 64,96 z"  />
<glyph unicode="&#x3f;" d="M 392,272L 384,272 L 384,368 c0,52.928-43.072,96-96,96l-64,0 c-52.928,0-96-43.072-96-96l0-96 L 120,272 C 106.8,272, 96,261.2, 96,248l0-240 
	C 96-5.2, 106.8-16, 120-16l 272,0 c 13.2,0, 24,10.8, 24,24l0,240 C 416,261.2, 405.2,272, 392,272z M 192,368c0,17.664, 14.352,32, 32,32l 64,0 
	c 17.648,0, 32-14.336, 32-32l0-96 l-128,0 L 192,368 z"  />
<glyph unicode="&#x34;" d="M 320,352l-128,0 l0-384 l 128,0 L 320,352 L 320,352z M0,192l 128,0 l0-224 L0-32 L0,192 z M 384,480l 128,0 l0-512 l-128,0 L 384,480 z"  />
<glyph unicode="&#x40;" d="M 416,120.88l 96,0 c0,141.392-114.608,256-256,256s-256-114.608-256-256l 32,0 c0,106.032, 85.968,192, 192,192
	c 56.416,0, 107.136-24.32, 142.256-63.056l-100.224-80.176c-3.248,0.672-6.608,1.024-10.048,1.024c-27.488,0-49.776-22.304-49.776-49.776
	s 22.304-49.776, 49.776-49.776s 49.776,22.304, 49.776,49.776c0,3.44-0.352,6.8-1.008,10.048l 78.16,97.712C 403.808,197.92, 416,160.816, 416,120.88z"  />
<glyph unicode="&#x42;" d="M 384,256l0-64 L 224,192 L 224,384 l 64,0 l0-128 L 384,256 z M 256,480C 114.608,480,0,365.392,0,224s 114.608-256, 256-256s 256,114.608, 256,256S 397.392,480, 256,480z M 256,32
	C 149.968,32, 64,117.968, 64,224S 149.968,416, 256,416s 192-85.968, 192-192S 362.032,32, 256,32z"  />
<glyph unicode="&#x37;" d="M 256,480C 114.608,480,0,365.392,0,224s 114.608-256, 256-256s 256,114.608, 256,256S 397.392,480, 256,480z M 384,192L 224,192 L 224,384 l 64,0 l0-128 l 96,0 L 384,192 z"  />
<glyph unicode="&#x41;" d="M 256,445.328C 133.76,445.328, 34.672,346.24, 34.672,224S 133.76,2.672, 256,2.672S 477.328,101.76, 477.328,224
	S 378.24,445.328, 256,445.328z M 283.664,85.664l-55.328,0 l0,55.328 l 55.328,0 L 283.664,85.664 z M 366.672,251.664c0-30.512-24.816-55.328-55.328-55.328l-27.616,0 
	c0-0.016-0.032-0.032-0.032-0.032l-0.016-27.648l-55.328,0 l0,27.664 c0,30.512, 24.816,55.328, 55.328,55.328l 27.616,0 c0,0, 0.032,0.032, 0.048,0.048
	l0,55.248 c-0.016,0.016-0.032,0.032-0.048,0.048l-138.288-0.016L 173.008,362.336 l 138.336,0 c 30.512,0, 55.328-24.816, 55.328-55.328L 366.672,251.664 z"  />
<glyph unicode="&#x22;" d="M 256,448C 132.288,448, 32,347.712, 32,224s 100.288-224, 224-224s 224,100.288, 224,224S 379.712,448, 256,448z M 396,196L 116,196 l0,56 l 280,0 
	L 396,196 z"  />
<glyph unicode="&#x61;" d="M 256,480C 114.624,480,0,365.392,0,224s 114.624-256, 256-256c 141.408,0, 256,114.608, 256,256S 397.408,480, 256,480z M 256,16
	C 141.12,16, 48,109.12, 48,224S 141.12,432, 256,432c 114.912,0, 208-93.12, 208-208S 370.912,16, 256,16z M 160,320l 192,0 l0-192 L 160,128 L 160,320 z"  />
<glyph unicode="&#x62;" d="M 256,480C 114.624,480,0,365.392,0,224s 114.624-256, 256-256c 141.408,0, 256,114.608, 256,256S 397.408,480, 256,480z M 256,16
	C 141.12,16, 48,109.12, 48,224S 141.12,432, 256,432c 114.912,0, 208-93.12, 208-208S 370.912,16, 256,16z M 160,320l 64,0 l0-192 l-64,0 L 160,320 z M 288,320l 64,0 l0-192 l-64,0 L 288,320 z"  />
<glyph unicode="&#x4d;" d="M 256,480C 114.624,480,0,365.392,0,224s 114.624-256, 256-256c 141.408,0, 256,114.608, 256,256S 397.408,480, 256,480z M 256,16
	C 141.12,16, 48,109.12, 48,224S 141.12,432, 256,432c 114.912,0, 208-93.12, 208-208S 370.912,16, 256,16z M 192,336l 192-112l-192-112L 192,336 z"  />
<glyph unicode="&#x45;" d="M 128,288l 128-128l 128,128L 128,288 z"  />
<glyph unicode="&#x46;" d="M 394.112,173.44l-128,128l-128-128L 394.112,173.44 z"  />
<glyph unicode="&#x51;" d="M 200.672,440.672C 213.504,453.504, 224,449.152, 224,431.008l0-414 c0-18.16-10.496-22.496-23.328-9.664L 80,128L0,128 L0,320 l 80,0 
	L 200.672,440.672z"  />
<glyph unicode="&#x53;" d="M 274.512,109.488c-6.16,0-12.288,2.336-16.976,7.024c-9.392,9.376-9.392,24.576,0,33.936
	c 40.528,40.544, 40.528,106.512,0,147.056c-9.392,9.376-9.392,24.576,0,33.936c 9.376,9.376, 24.56,9.376, 33.92,0
	c 59.264-59.264, 59.264-155.68,0-214.96C 286.8,111.84, 280.656,109.488, 274.512,109.488z M 200.672,440.672C 213.52,453.504, 224,449.152, 224,431.008l0-414 
	c0-18.16-10.48-22.496-23.328-9.664L 80,128L0,128 L0,320 l 80,0 L 200.672,440.672z"  />
<glyph unicode="&#x54;" d="M 359.76,64.24c-6.16,0-12.304,2.336-16.992,7.024c-9.376,9.376-9.376,24.576,0,33.936
	c 65.52,65.504, 65.52,172.080,0,237.584c-9.376,9.376-9.376,24.576,0,33.936c 9.376,9.376, 24.576,9.376, 33.936,0
	C 417.552,335.936, 440,281.68, 440,224s-22.448-111.936-63.264-152.736C 372.048,66.576, 365.904,64.24, 359.76,64.24z M 274.512,109.488
	c-6.16,0-12.288,2.336-16.976,7.024c-9.392,9.376-9.392,24.576,0,33.936c 40.528,40.544, 40.528,106.512,0,147.056
	c-9.392,9.376-9.392,24.576,0,33.936c 9.376,9.376, 24.56,9.376, 33.92,0c 59.264-59.264, 59.264-155.68,0-214.96
	C 286.8,111.84, 280.656,109.488, 274.512,109.488z M 200.672,440.672C 213.52,453.504, 224,449.152, 224,431.008l0-414 c0-18.16-10.48-22.496-23.328-9.664
	L 80,128L0,128 L0,320 l 80,0 L 200.672,440.672z"  />
<glyph unicode="&#x56;" d="M 413.024,18.976c-6.16,0-12.304,2.336-16.992,7.024c-9.376,9.376-9.376,24.576,0,33.936
	C 439.872,103.776, 464,162.032, 464,224s-24.128,120.224-67.952,164.048c-9.376,9.376-9.376,24.576,0,33.936c 9.376,9.376, 24.576,9.376, 33.936,0
	C 482.864,369.104, 512,298.784, 512,224s-29.12-145.104-82.016-197.984C 425.296,21.328, 419.168,18.976, 413.024,18.976z M 342.144,64.24
	c-6.16,0-12.304,2.336-16.992,7.024c-9.376,9.376-9.376,24.576,0,33.936c 65.504,65.504, 65.504,172.080,0,237.584
	c-9.376,9.376-9.376,24.576,0,33.936c 9.376,9.376, 24.576,9.376, 33.936,0c 40.816-40.784, 63.28-95.024, 63.28-152.72s-22.464-111.936-63.264-152.736
	C 354.432,66.576, 348.288,64.24, 342.144,64.24z M 268.112,109.488c-6.144,0-12.304,2.336-16.992,7.024c-9.376,9.376-9.376,24.576,0,33.936
	c 40.544,40.544, 40.544,106.512,0,147.056c-9.376,9.376-9.376,24.576,0,33.936c 9.376,9.376, 24.576,9.376, 33.936,0
	c 59.264-59.264, 59.264-155.68,0-214.96C 280.384,111.84, 274.256,109.488, 268.112,109.488z M 200.672,440.672C 213.504,453.504, 224,449.152, 224,431.008l0-414 
	c0-18.16-10.496-22.496-23.328-9.664L 80,128L0,128 L0,320 l 80,0 L 200.672,440.672z"  />
<glyph unicode="&#x3d;" d="M0,448l 320,0 l0-64 L0,384 L0,448 z M0,320l 288,0 l0-64 L0,256 L0,320 z M0,192l 224,0 l0-64 L0,128 L0,192 z M0,64l 160,0 l0-64 L0,0 L0,64 z M 416,480l-64,0 l0-356.56 
	C 342,126.384, 331.216,128, 320,128c-53.024,0-96-35.824-96-80s 42.976-80, 96-80s 96,35.824, 96,80L 416,384 l 96-32L 512,416 L 416,480z"  />
<glyph unicode="&#x33;" d="M 64,416l 384,0 l0-384 L 64,32 L 64,416 z"  />
<glyph unicode="&#x25;" d="M 64,416l 160,0 l0-384 L 64,32 L 64,416 z M 288,416l 160,0 l0-384 L 288,32 L 288,416 z"  />
<glyph unicode="&#x23;" d="M 96,416l 320-192L 96,32L 96,416 z"  />
<glyph unicode="&#x31;" d="M0,432l0-416 l 512,0 L 512,432 L0,432 z M 480,48L 32,48 L 32,400 l 448,0 L 480,48 z M 352,320c0-26.496, 21.488-48, 48-48s 48,21.504, 48,48s-21.488,48-48,48S 352,346.496, 352,320z
	 M 448,80L 64,80 l 96,256l 128-160l 64,48L 448,80z"  />
<glyph unicode="&#x3a;" d="M 104.496,48.288l 315.328,0 l0,36.432 c0,47.152-24.96,94.72-80.736,94.72l-153.856,0 c-55.776,0-80.736-47.568-80.736-94.72L 104.496,48.288 
			zM 372.944,375.552c-7.968,0-15.696-1.216-22.944-3.44c 10.56-16.336, 16.72-35.776, 16.72-56.624
			c0-32.8-15.168-62.096-38.88-81.28c 12.736-9.072, 28.272-14.464, 45.088-14.464c 43.024,0, 77.904,34.88, 77.904,77.888
			C 450.848,340.672, 415.984,375.552, 372.944,375.552zM 150.496,375.552c 8,0, 15.712-1.216, 22.976-3.44c-10.576-16.336-16.752-35.776-16.752-56.624
			c0-32.8, 15.2-62.096, 38.912-81.28c-12.736-9.072-28.272-14.464-45.12-14.464c-43.008,0-77.904,34.88-77.904,77.888
			C 72.608,340.672, 107.488,375.552, 150.496,375.552zM 436.432,193.776l-62.56,0 c 39.696-14.512, 65.504-54.336, 66.24-106.752l 71.328,0 l0,20.208 
			C 511.44,154.816, 484.032,193.776, 436.432,193.776zM 151.28,194.080L 74.448,194.080 c-46.896,0-73.888-38.368-73.888-85.264l0-19.904 l 83.68,0 C 85.584,140.768, 111.584,179.984, 151.28,194.080zM 262.16,399.712c-46.448,0-84.24-37.776-84.24-84.224s 37.776-84.24, 84.24-84.24c 46.464,0, 84.24,37.792, 84.24,84.24
		S 308.624,399.712, 262.16,399.712z"  />
<glyph unicode="&#x64;" d="M 292.571-31.982l-15.963,7.753C 265.307-18.761,0,112.274,0,311.461c0,92.946, 77.422,168.558, 172.581,168.558
	c 45.513,0, 88.302-17.408, 120.009-47.378c 31.689,29.97, 74.459,47.378, 119.991,47.378c 95.159,0, 172.581-75.611, 172.581-168.558
	c0-199.205-265.307-330.222-276.608-335.671L 292.571-31.982z M 172.581,406.857C 117.76,406.857, 73.143,364.069, 73.143,311.461c0-77.678, 61.861-145.865, 113.737-189.349
	c 41.454-34.706, 83.493-59.813, 105.691-72.082c 22.181,12.251, 64.256,37.358, 105.691,72.082C 450.121,165.614, 511.982,233.783, 511.982,311.461
	c0,52.608-44.599,95.415-99.438,95.415c-36.955,0-70.638-19.493-87.973-50.907L 292.571,297.838l-32.037,58.13C 243.237,387.365, 209.536,406.857, 172.581,406.857z
	" horiz-adv-x="585.143"  />
<glyph unicode="&#x26;" d="M 429.714,480c-59.355,0-110.958-33.298-137.143-82.231c-26.167,48.933-77.769,82.231-137.143,82.231
	c-85.833,0-155.429-69.595-155.429-155.429c0-210.286, 292.571-356.571, 292.571-356.571s 292.571,146.286, 292.571,356.571C 585.143,410.405, 515.566,480, 429.714,480z" horiz-adv-x="585.143"  />
<glyph unicode="&#x24;" d="M -34.667,515.658L 391.977,259.675l-426.661-256L -34.667,515.658 z" horiz-adv-x="429.419"  />
<glyph unicode="&#x3b;" d="M 96,288A64,64 180 1 1 224,288A64,64 180 1 1 96,288zM 288,384A64,64 180 1 1 416,384A64,64 180 1 1 288,384zM 160,192C 71.634,192,0,112.952,0,15.75c0-5.395, 0.233-10.25, 0.665-16.25l 48.204,0 c-0.571,6-0.869,10.832-0.869,16.25
			c0,70.693, 50.144,128.125, 112,128.125s 112-57.494, 112-128.188c0-5.418-0.297-10.188-0.869-16.188l 48.205,0 
			c 0.432,6, 0.664,10.855, 0.664,16.25C 320,112.952, 248.366,192, 160,192zM 352,288c-50.393,0-95.336-25.634-124.663-65.686c 4.356-1.656, 8.672-3.475, 12.941-5.461
			c 10.501-4.885, 20.521-10.672, 30.016-17.317C 290.729,224.437, 319.772,240, 352,240c 61.856,0, 112-57.557, 112-128.25
			c0-5.418-0.299-10.25-0.87-16.25l 48.206,0 c 0.432,6, 0.664,10.855, 0.664,16.25C 512,208.952, 440.366,288, 352,288z"  />
<glyph unicode="&#x32;" d="M 256,416L 256,480 L 64,480 l0-64 L0,416 l0-192 l 64,0 l0-256 l 192,0 L 256,224 l 256,0 L 512,416 L 256,416 z M 64,256L 32,256 L 32,384 l 32,0 L 64,256 z M 224,416l-64,0 l0-32 l 64,0 l0-32 l-64,0 l0-32 l 64,0 l0-32 l-64,0 l0-32 l 64,0 l0-32 l-64,0 l0-32 l 64,0 l0-32 l-64,0 l0-32 l 64,0 l0-32 
	l-64,0 l0-32 l 64,0 l0-64 L 96,0 L 96,448 l 128,0 L 224,416 z M 480,256l-32,0 l0,64 l-32,0 l0-64 l-32,0 l0,64 l-32,0 l0-64 l-32,0 l0,64 l-32,0 l0-64 l-32,0 L 256,384 l 224,0 L 480,256 z"  />
<glyph unicode="&#x49;" d="M 256-32c0,0, 180.016,222.496, 180.016,352.992C 436.016,427.024, 362.032,480, 256,480S 75.984,427.024, 75.984,320.992
	C 75.984,190.496, 256-32, 256-32z M 255.776,256c-35.344,0-64,28.656-64,64s 28.656,64, 64,64s 64-28.656, 64-64S 291.12,256, 255.776,256z"  />
<glyph unicode="&#x5a;" d="M 256,448C 132.288,448, 32,347.712, 32,224s 100.288-224, 224-224s 224,100.288, 224,224S 379.712,448, 256,448z M 390.624,134.624l-45.264-45.264
	L 256,178.752l-89.376-89.376l-45.248,45.248L 210.752,224l-89.376,89.376l 45.248,45.248L 256,269.248l 89.376,89.376l 45.264-45.248L 301.248,224
	L 390.624,134.624z"  />
<glyph unicode="&#x43;" d="M 416,448L 96,448 L0,352l0-336 c0-8.832, 7.168-16, 16-16L 496,0 c 8.816,0, 16,7.168, 16,16L 512,352 L 416,448z M 320,160l0-96 l-128,0 l0,96 L 96,160 L 256,288l 160-128L 320,160 z
	 M 77.248,384l 32,32L 402.72,416 l 32-32L 77.248,384 z"  />
<glyph unicode="&#x44;" d="M 416,448L 96,448 L0,352l0-336 c0-8.832, 7.168-16, 16-16l 480,0 c 8.832,0, 16,7.168, 16,16L 512,352 L 416,448z M 256,64L 96,192l 96,0 l0,96 l 128,0 l0-96 l 96,0 L 256,64z M 77.248,384
	l 32,32l 293.488,0 l 32-32L 77.248,384 z"  />
<glyph unicode="&#x21;" d="M 400,393.84c 38.256,0, 72.56,20.816, 96,36.56l0-297.84 C 472.56,116.816, 438.256,96, 400,96c-38.224,0-72.528,11.328-96,27.056
	c-23.44,15.744-57.744,27.088-96,27.088c-38.224,0-72.528-19.472-96-35.184L 112,412.8 C 135.472,428.544, 169.776,448, 208,448c 38.256,0, 72.56-11.328, 96-27.056
	C 327.472,405.184, 361.776,393.84, 400,393.84z M 48,480c 17.68,0, 32-14.32, 32-32l0-480 L 16-32 L 16,448 C 16,465.68, 30.336,480, 48,480z"  />
<glyph unicode="&#x3c;" d="M 124.944,342.912A131.056,131.056 180 1 1 387.056,342.91200000000003A131.056,131.056 180 1 1 124.944,342.91200000000003zM 488.992-25.968l0,53.408 c0,80.080-46.128,145.616-126.208,145.616L 149.216,173.056 c-80.080,0-126.192-65.52-126.192-145.616l0-53.408 
		L 488.992-25.968 z"  />
<glyph unicode="&#x59;" d="M 311.6,479.12L 330.112,296.608L 499.376,225.776L 331.504,151.728L 316.448-31.12L 194.176,105.664L 15.632,63.488L 196.848,222.064L 12.624,378.832L 191.92,340.064 z"  />
<glyph unicode="&#x79;" d="M 432,424l-240-240l-112,112l-80-80l 192-192l 320,320L 432,424z"  />
<glyph unicode="&#x65;" d="M 64,224l 128,128L 128,352 l-128-128l 128-128l 64,0 L 64,224z M 384,352l-64,0 l 128-128l-128-128l 64,0 l 128,128L 384,352z M 272,416l-80-384l 48,0 l 80,384L 272,416 z"  />
<glyph unicode="&#x4b;" d="M 438.288-32.048L 73.712-32.048 c-14.368,0-26.032,11.664-26.032,26.048c0,37.36, 15.76,82.56, 42.176,120.944
	c 22.112,32.064, 49.2,56.208, 78.496,70.32c-12.928,11.728-24.016,26.048-32.832,42.352c-14.096,26.192-21.584,56.448-21.584,87.536
	c0,43.184, 14.24,83.968, 40.064,114.896C 180.944,462.304, 217.184,480.048, 256,480.048c 38.848,0, 75.056-17.744, 102.016-50.016
	c 25.792-30.928, 40.016-71.712, 40.016-114.896c0-31.072-7.44-61.328-21.536-87.536c-8.832-16.336-19.936-30.624-32.88-42.368
	c 29.312-14.096, 56.432-38.24, 78.496-70.304c 26.416-38.368, 42.192-83.584, 42.192-120.944C 464.32-20.384, 452.64-32.048, 438.288-32.048z M 103.072,20.032
	L 408.96,20.032 c-5.024,21.328-15.472,44.704-29.712,65.376c-22.464,32.672-50.528,54.032-79.008,60.176c-12,2.592-20.544,13.2-20.544,25.44l0,18.592 
	c0,9.376, 5.024,18.016, 13.152,22.656c 32.24,18.336, 53.104,58.736, 53.104,102.88c0,62.224-40.352,112.848-89.952,112.848s-89.952-50.624-89.952-112.848
	c0-44.128, 20.864-84.528, 53.136-102.88c 8.112-4.64, 13.136-13.264, 13.136-22.656l0-18.592 c0-12.272-8.576-22.848-20.544-25.44
	c-28.48-6.144-56.512-27.504-79.024-60.176C 118.544,64.736, 108.080,41.36, 103.072,20.032z"  />
<glyph unicode="&#x6d;" d="M 496,288L 320,288 L 320,464 c0,8.816-7.184,16-16,16l-96,0 c-8.832,0-16-7.184-16-16l0-176 L 16,288 c-8.832,0-16-7.184-16-16l0-96 c0-8.848, 7.168-16, 16-16
	l 176,0 l0-176 c0-8.848, 7.168-16, 16-16l 96,0 c 8.816,0, 16,7.152, 16,16L 320,160 l 176,0 c 8.816,0, 16,7.152, 16,16l0,96 C 512,280.816, 504.816,288, 496,288z"  />
<glyph unicode="&#x20;" horiz-adv-x="256" />
</font>
</defs>
</svg>
