<?xml version="1.0" standalone="no"?>
<!DOCTYPE svg PUBLIC "-//W3C//DTD SVG 1.1//EN" "http://www.w3.org/Graphics/SVG/1.1/DTD/svg11.dtd" >
<svg xmlns="http://www.w3.org/2000/svg">
<metadata>Generated by IcoMoon</metadata>
<defs>
<font id="icomoon" horiz-adv-x="1024">
<font-face units-per-em="1024" ascent="960" descent="-64" />
<missing-glyph horiz-adv-x="1024" />
<glyph unicode="&#x20;" horiz-adv-x="512" d="" />
<glyph unicode="&#x21;" glyph-name="uni21" d="M800 787.68c76.512 0 145.12 41.632 192 73.12v-595.68c-46.88-31.488-115.488-73.12-192-73.12-76.448 0-145.056 22.656-192 54.112-46.88 31.488-115.488 54.176-192 54.176-76.448 0-145.056-38.944-192-70.368v595.68c46.944 31.488 115.552 70.4 192 70.4 76.512 0 145.12-22.656 192-54.112 46.944-31.52 115.552-54.208 192-54.208zM96 960c35.36 0 64-28.64 64-64v-960h-128v960c0 35.36 28.672 64 64 64z" />
<glyph unicode="&#x22;" glyph-name="uni22" d="M512 896c-247.424 0-448-200.576-448-448s200.576-448 448-448 448 200.576 448 448-200.576 448-448 448zM792 392h-560v112h560v-112z" />
<glyph unicode="&#x23;" glyph-name="uni23" d="M192 832l640-384-640-384v768z" />
<glyph unicode="&#x24;" glyph-name="uni24" horiz-adv-x="854" d="M0 960l853.318-511.984-853.318-512.016v1024z" />
<glyph unicode="&#x25;" glyph-name="uni25" d="M128 832h320v-768h-320v768zM576 832h320v-768h-320v768z" />
<glyph unicode="&#x26;" glyph-name="uni26" horiz-adv-x="1170" d="M859.428 960c-118.712 0-221.914-66.596-274.286-164.462-52.334 97.866-155.538 164.462-274.286 164.462-171.666 0-310.858-139.192-310.858-310.856 0-420.572 585.144-713.144 585.144-713.144s585.144 292.572 585.144 713.144c0 171.666-139.154 310.856-310.856 310.856z" />
<glyph unicode="&#x27;" glyph-name="uni27" d="M873.984 649.984l-432-432h-160v160l432 432 160-160zM928 703.968l-160 160 56 56.064c18.688 18.688 49.248 18.688 67.936 0l92.064-92.128c18.688-18.688 18.688-49.184 0-67.872l-56-56.064zM793.984 422.4v-332.448h-640v640h352l128 128h-512c-52.768 0-96-43.2-96-96v-704c0-52.8 43.232-96 96-96h704c52.768 0 96 43.2 96 96v479.36l-128-114.912z" />
<glyph unicode="&#x28;" glyph-name="uni28" d="M891.968 477.824c-18.080 0-35.328-3.52-51.072-9.888-10.496 114.368-110.304 204.064-232 204.064-29.824 0-58.688-5.632-84.352-15.2-9.92-3.68-12.544-7.488-12.544-14.848v-402.752c0-7.744 6.24-14.208 14.112-15.008 0.352 0 363.52-0.192 365.888-0.192 72.928 0 132 56.8 132 126.88s-59.136 126.944-132.032 126.944zM400 224h32l16 224.224-16 223.776h-32l-16-223.776 16-224.224zM304 224h-32l-16 162.752 16 157.248h32l16-160-16-160zM144 224h32l16 128-16 128h-32l-16-128 16-128zM16 288h32l16 64-16 64h-32l-16-64 16-64z" />
<glyph unicode="&#x29;" glyph-name="uni29" d="M512 928c-265.088 0-480-214.912-480-480s214.912-480 480-480 480 214.912 480 480-214.912 480-480 480zM783.552 288c8.608 40.448 14.016 83.36 15.744 128h127.456c-3.328-44.192-13.632-87.104-30.688-128h-112.512zM240.448 608c-8.608-40.448-14.016-83.36-15.744-128h-127.488c3.328 44.192 13.632 87.104 30.688 128h112.544zM718.048 608c9.568-40.96 15.36-83.84 17.248-128h-191.296v128h174.048zM544 672v187.328c14.592-4.256 29.056-11.328 43.264-21.376 26.56-18.752 52-47.584 73.504-83.456 14.912-24.768 27.744-52.416 38.496-82.496h-155.264zM363.264 754.496c21.504 35.872 46.944 64.704 73.504 83.456 14.176 10.048 28.64 17.152 43.232 21.376v-187.328h-155.264c10.752 30.048 23.616 57.696 38.528 82.496zM480 608v-128h-191.328c1.888 44.16 7.648 87.040 17.248 128h174.080zM127.904 288c-17.056 40.896-27.328 83.808-30.688 128h127.456c1.76-44.64 7.168-87.552 15.744-128h-112.512zM288.672 416h191.328v-128h-174.048c-9.6 40.96-15.392 83.84-17.28 128zM480 224v-187.328c-14.592 4.256-29.056 11.328-43.264 21.376-26.56 18.752-52 47.584-73.504 83.456-14.912 24.768-27.744 52.416-38.496 82.496h155.264zM660.736 141.504c-21.504-35.872-46.944-64.704-73.504-83.456-14.176-9.984-28.672-17.12-43.264-21.376v187.328h155.264c-10.72-30.048-23.584-57.664-38.496-82.496zM544 288v128h191.328c-1.888-44.16-7.648-87.040-17.248-128h-174.080zM799.36 480c-1.792 44.64-7.2 87.552-15.744 128h112.512c17.056-40.896 27.36-83.808 30.688-128h-127.456zM862.656 672h-95.904c-18.624 58.752-44.384 110.304-75.328 151.424 42.496-20.384 81.056-47.616 114.688-81.312 21.536-21.44 40.416-44.896 56.544-70.112zM217.888 742.112c33.632 33.696 72.192 60.928 114.688 81.312-30.944-41.12-56.672-92.672-75.328-151.424h-95.904c16.128 25.216 35.008 48.672 56.544 70.112zM161.344 224h95.904c18.656-58.752 44.384-110.304 75.328-151.424-42.496 20.384-81.056 47.616-114.688 81.312-21.536 21.44-40.416 44.896-56.544 70.112zM806.112 153.888c-33.632-33.696-72.192-60.928-114.688-81.312 30.944 41.12 56.672 92.672 75.328 151.424h95.904c-16.128-25.216-35.008-48.672-56.544-70.112z" />
<glyph unicode="&#x2a;" glyph-name="uni2A" d="M91.4 414.664c0 0-53.57 429.988 418.678 429.988 0 0 454.358 8.4 411.798-429.988 0 0 26.75-9.61 42.736-21.246 21.068-15.4 37.992-36.716 37.992-36.716s102.098 262.998-158.74 479.154c0 0-322.112 255.452-669.698 0 0 0-229.45-156.278-158.752-479.154 0 0 14.314 22.958 37.040 39.528 15.958 11.596 38.944 18.432 38.944 18.432zM0.788 157.66c0-240.432 255.67-212.322 255.67-212.322v444.694c-271.996 0-255.67-232.372-255.67-232.372zM174.982 28.242c0 0-96.21 10.928-96.21 138.92 0 0-9.242 117.062 96.21 127.094v-266.014zM762.43 390.034v-444.708c0 0 255.658-28.11 255.658 212.322-0.014 0.014 16.338 232.386-255.658 232.386zM843.894 294.244c105.442-10.018 96.17-127.094 96.17-127.094 0-127.992-96.17-138.92-96.17-138.92v266.014z" />
<glyph unicode="&#x2b;" glyph-name="uni2B" d="M592.608-64h-191.872v512h-128v176.448l128 0.064-0.192 103.936c-0.032 144 38.976 231.552 208.544 231.552h141.184v-176.512h-88.224c-66.016 0-69.216-24.64-69.216-70.688l-0.256-88.32h158.688l-18.72-176.448-139.84-0.032-0.096-512z" />
<glyph unicode="&#x2c;" glyph-name="uni2C" d="M1024 765.6c-37.664-16.672-78.176-28-120.672-33.088 43.36 26.016 76.672 67.168 92.416 116.224-40.64-24.064-85.568-41.568-133.408-50.976-38.336 40.832-92.928 66.336-153.344 66.336-116.032 0-210.080-94.048-210.080-210.048 0-16.512 1.888-32.544 5.44-47.872-174.624 8.736-329.44 92.384-433.024 219.488-18.080-31.072-28.48-67.136-28.48-105.632 0-72.864 37.088-137.184 93.472-174.88-34.432 1.056-66.816 10.496-95.168 26.24-0.032-0.864-0.032-1.76-0.032-2.624 0-101.824 72.416-186.688 168.512-206.048-17.632-4.736-36.192-7.328-55.328-7.328-13.536 0-26.688 1.312-39.52 3.744 26.752-83.424 104.32-144.192 196.256-145.888-71.904-56.384-162.496-89.952-260.896-89.952-16.96 0-33.696 0.992-50.112 2.944 92.96-59.616 203.392-94.368 322.048-94.368 386.4 0 597.728 320.128 597.728 597.76 0 9.12-0.192 18.176-0.608 27.2 41.024 29.664 76.672 66.624 104.8 108.768z" />
<glyph unicode="&#x2d;" glyph-name="uni2D" d="M960 832h-896c-35.2 0-64-28.8-64-64v-640c0-35.2 28.8-64 64-64h896c35.2 0 64 28.8 64 64v640c0 35.2-28.8 64-64 64zM896 704v-46.016l-384-226.272-384 226.272v46.016h768zM128 192v354.56l384-226.272 384 226.272v-354.56h-768z" />
<glyph unicode="&#x2e;" glyph-name="uni2E" d="M914.304 752.672c106.528-60.544 109.696-125.344 109.696-170.656v-6.816c0-10.304-8.928-18.816-19.84-18.816h-240.32c-10.912 0-19.84 8.512-19.84 18.816v22.944c0 57.184-54.72 66.336-84.896 71.2s-105.248 9.568-146.976 9.568c-0.032 0-0.064 0-0.128 0s-0.096 0-0.16 0c-41.696 0-116.768-4.672-146.944-9.568-30.176-4.864-84.896-14.016-84.896-71.232v-22.944c0-10.304-8.928-18.816-19.84-18.816h-240.32c-10.912 0-19.84 8.512-19.84 18.816v6.816c0 45.312 3.168 110.112 109.696 170.688 126.688 72.064 307.872 79.328 402.144 79.328 0.064-0.064 0.096-0.096 0.16-0.16 0.032 0.064 0.096 0.096 0.128 0.16 94.304 0 275.488-7.264 402.176-79.328zM512 576c-56.736 0-174.88-4.256-234.912-77.024s-210.176-434.976-76.288-434.976 250.912 0 311.2 0 177.28 0 311.2 0-16.256 362.208-76.288 434.976c-60.032 72.768-178.176 77.024-234.912 77.024zM512 192c-70.688 0-128 57.312-128 128s57.312 128 128 128 128-57.312 128-128-57.312-128-128-128z" />
<glyph unicode="&#x2f;" glyph-name="uni2F" d="M836 896h-648c-103.392 0-188-84.64-188-188v-708l192 192h644c103.392 0 188 84.64 188 188v328c0 103.36-84.608 188-188 188zM320 448c-35.36 0-64 28.64-64 64s28.64 64 64 64 64-28.64 64-64-28.64-64-64-64zM512 448c-35.36 0-64 28.64-64 64s28.64 64 64 64 64-28.64 64-64-28.64-64-64-64zM704 448c-35.36 0-64 28.64-64 64s28.64 64 64 64 64-28.64 64-64-28.64-64-64-64z" />
<glyph unicode="&#x30;" glyph-name="uni30" d="M975.31 382.062c2.812 20.8 4.43 41.946 4.43 63.472 0 258.312-210.542 467.744-470.206 467.744-25.808 0-51.11-2.12-75.732-6.16-44.146 28.768-96.684 45.534-153.226 45.534-155.044 0-280.576-125.616-280.576-280.612 0-56.396 16.598-108.788 45.18-152.778-3.85-24.034-5.818-48.646-5.818-73.72 0-258.352 210.434-467.762 470.17-467.762 29.314 0 57.854 2.852 85.592 7.864 43.1-26.738 93.868-42.296 148.292-42.296 155.004 0 280.586 125.648 280.586 280.628-0.006 58.586-17.92 113.056-48.692 158.086zM553.48 100.808c-149.412-7.782-219.33 25.274-283.38 85.382-71.53 67.136-42.796 143.71 15.48 147.602 58.244 3.89 93.216-66.024 124.302-85.472 31.048-19.376 149.186-63.52 211.588 7.816 67.95 77.656-45.188 117.84-128.118 130.004-118.406 17.532-267.9 81.586-256.27 207.814 11.634 126.148 107.164 190.828 207.7 199.952 128.154 11.634 211.582-19.414 277.57-75.72 76.302-65.058 35.016-137.788-13.598-143.64-48.422-5.818-102.808 107.008-209.582 108.704-110.054 1.728-184.434-114.522-48.572-147.568 135.932-33.010 281.5-46.572 333.922-170.834 52.458-124.274-81.508-256.25-231.042-264.040z" />
<glyph unicode="&#x31;" glyph-name="uni31" d="M0 864v-832h1024v832h-1024zM960 96h-896v704h896v-704zM704 640c0-52.992 42.976-96 96-96s96 43.008 96 96-42.976 96-96 96-96-43.008-96-96zM896 160h-768l192 512 256-320 128 96 192-288z" />
<glyph unicode="&#x32;" glyph-name="uni32" d="M512 832v128h-384v-128h-128v-384h128v-512h384v512h512v384h-512zM128 512h-64v256h64v-256zM448 832h-128v-64h128v-64h-128v-64h128v-64h-128v-64h128v-64h-128v-64h128v-64h-128v-64h128v-64h-128v-64h128v-128h-256v896h256v-64zM960 512h-64v128h-64v-128h-64v128h-64v-128h-64v128h-64v-128h-64v256h448v-256z" />
<glyph unicode="&#x33;" glyph-name="uni33" d="M128 832h768v-768h-768v768z" />
<glyph unicode="&#x34;" glyph-name="uni34" d="M640 704h-256v-768h256v768zM0 384h256v-448h-256v448zM768 960h256v-1024h-256v1024z" />
<glyph unicode="&#x35;" glyph-name="uni35" d="M935.5 349.332c-54.014 93.496-21.528 213.352 72.482 267.788l-101.134 175.164c-28.876-16.952-62.46-26.654-98.298-26.654-108.096 0-195.692 88.178-195.692 196.95l-202.138-0.032c0.258-33.582-8.122-67.648-26.138-98.716-53.952-93.496-173.938-125.274-268.078-71.096l-101.198-175.164c29.070-16.566 54.338-40.77 72.224-71.804 53.886-93.366 21.626-212.902-72.032-267.562l101.132-175.164c28.748 16.792 62.232 26.364 97.846 26.364 107.74 0 195.144-87.596 195.628-195.854h202.202c-0.064 33.228 8.38 66.908 26.136 97.684 53.918 93.334 173.616 125.176 267.692 71.354l101.134 175.164c-28.942 16.534-53.918 40.706-71.774 71.58zM511.662 239.754c-115.088 0-208.326 93.302-208.326 208.294 0 115.056 93.236 208.326 208.326 208.326 115.024 0 208.326-93.27 208.326-208.326 0-114.992-93.302-208.294-208.326-208.294z" />
<glyph unicode="&#x36;" glyph-name="uni36" d="M928 960h-832c-52.8 0-96-43.2-96-96v-576c0-52.8 43.2-96 96-96h160v-256l307.2 256h364.8c52.8 0 96 43.2 96 96v576c0 52.8-43.2 96-96 96zM731.168 521.216h-164.384v-164.416h-109.6v164.416h-164.352v109.568h164.352v164.384h109.6v-164.384h164.384v-109.568z" />
<glyph unicode="&#x37;" glyph-name="uni37" d="M512 960c-282.784 0-512-229.216-512-512s229.216-512 512-512 512 229.216 512 512-229.216 512-512 512zM768 384h-320v384h128v-256h192v-128z" />
<glyph unicode="&#x38;" glyph-name="uni38" d="M511.992 257.366c108.104 0 222.776 71.282 222.776 159.16v382.044c0 87.88-117.184 159.16-222.774 159.16-102.68 0-222.762-71.294-222.762-159.16v-382.044c0-87.88 113.080-159.16 222.762-159.16zM383.716 756.798c0 69.42 61.508 100.316 128.276 100.316 68.646 0 128.276-30.896 128.276-100.316v-301.804c0-69.406-57.988-100.316-128.276-100.316-71.322 0-128.276 30.898-128.276 100.316v301.804zM798.41 512.044v-95.532c0-123.072-141.068-227.178-286.418-227.178-144.032 0-286.43 104.11-286.43 227.178v95.53h-89.116v-95.53c0-171.516 175.022-294.342 318.28-310.164v-90.978h-165.496v-76.352h445.524v76.352h-178.19v90.978c143.256 15.822 330.99 127.502 330.99 310.164v95.53h-89.144z" />
<glyph unicode="&#x39;" glyph-name="uni39" d="M1014.718 59.174l-279.736 242.836c119.662 163.008 103.354 395.852-45.924 541.552-162.136 158.334-420.506 154.726-575.972-7.992-155.434-162.716-149.956-423.826 12.182-582.126 146.184-142.704 370.746-153.758 527.404-35.192l252.15-274.226c9.538-10.506 25.298-10.666 35.064-0.58l76.606 80.278c9.702 10.216 8.96 26.138-1.774 35.45zM634.336 334.302c-119.79-124.784-318.924-127.59-443.838-6.154-124.914 121.466-129.072 321.922-9.314 446.706 119.726 124.882 318.828 127.654 443.742 6.154 124.98-121.4 129.136-321.89 9.41-446.706z" />
<glyph unicode="&#x3a;" glyph-name="uni3A" d="M208.992 96.576h630.656v72.864c0 94.304-49.92 189.44-161.472 189.44h-307.712c-111.552 0-161.472-95.136-161.472-189.44v-72.864zM745.888 751.104c-15.936 0-31.392-2.432-45.888-6.88 21.12-32.672 33.44-71.552 33.44-113.248 0-65.6-30.336-124.192-77.76-162.56 25.472-18.144 56.544-28.928 90.176-28.928 86.048 0 155.808 69.76 155.808 155.776 0.032 86.080-69.696 155.84-155.776 155.84zM300.992 751.104c16 0 31.424-2.432 45.952-6.88-21.152-32.672-33.504-71.552-33.504-113.248 0-65.6 30.4-124.192 77.824-162.56-25.472-18.144-56.544-28.928-90.24-28.928-86.016 0-155.808 69.76-155.808 155.776 0 86.080 69.76 155.84 155.776 155.84zM872.864 387.552h-125.12c79.392-29.024 131.008-108.672 132.48-213.504h142.656v40.416c0 95.168-54.816 173.088-150.016 173.088zM302.56 388.16h-153.664c-93.792 0-147.776-76.736-147.776-170.528v-39.808h167.36c2.688 103.712 54.688 182.144 134.080 210.336zM524.32 799.424c-92.896 0-168.48-75.552-168.48-168.448s75.552-168.48 168.48-168.48c92.928 0 168.48 75.584 168.48 168.48s-75.552 168.448-168.48 168.448z" />
<glyph unicode="&#x3b;" glyph-name="uni3B" d="M448 576c0-70.692-57.308-128-128-128s-128 57.308-128 128c0 70.692 57.308 128 128 128s128-57.308 128-128zM832 768c0-70.692-57.308-128-128-128s-128 57.308-128 128c0 70.692 57.308 128 128 128s128-57.308 128-128zM320 384c-176.732 0-320-158.096-320-352.5 0-10.79 0.466-20.5 1.33-32.5h96.408c-1.142 12-1.738 21.664-1.738 32.5 0 141.386 100.288 256.25 224 256.25s224-114.988 224-256.376c0-10.836-0.594-20.376-1.738-32.376h96.41c0.864 12 1.328 21.71 1.328 32.5 0 194.406-143.268 352.502-320 352.502zM704 576c-100.786 0-190.672-51.268-249.326-131.372 8.712-3.312 17.344-6.95 25.882-10.922 21.002-9.77 41.042-21.344 60.032-34.634 40.87 49.802 98.956 80.928 163.412 80.928 123.712 0 224-115.114 224-256.5 0-10.836-0.598-20.5-1.74-32.5h96.412c0.864 12 1.328 21.71 1.328 32.5 0 194.404-143.268 352.5-320 352.5z" />
<glyph unicode="&#x3c;" glyph-name="uni3C" d="M774.112 685.824c0-144.76-117.352-262.112-262.112-262.112s-262.112 117.352-262.112 262.112c0 144.76 117.352 262.112 262.112 262.112s262.112-117.352 262.112-262.112zM977.984-51.936v106.816c0 160.16-92.256 291.232-252.416 291.232h-427.136c-160.16 0-252.384-131.040-252.384-291.232v-106.816h931.936z" />
<glyph unicode="&#x3d;" glyph-name="uni3D" d="M0 896h640v-128h-640v128zM0 640h576v-128h-576v128zM0 384h448v-128h-448v128zM0 128h320v-128h-320v128zM832 960h-128v-713.12c-20 5.888-41.568 9.12-64 9.12-106.048 0-192-71.648-192-160s85.952-160 192-160 192 71.648 192 160v672l192-64v128l-192 128z" />
<glyph unicode="&#x3e;" glyph-name="uni3E" d="M136.288 209.056c-75.2 0-136.288-61.344-136.288-136.064 0-75.2 61.088-135.808 136.288-135.808 75.456 0 136.512 60.64 136.512 135.808-0.032 74.752-61.024 136.064-136.512 136.064zM0.16 612.064v-196.256c127.776 0 247.968-49.984 338.464-140.512 90.4-90.304 140.288-211.072 140.288-339.328h197.12c-0.032 372.832-303.328 676.096-675.872 676.096zM0.416 960v-196.384c455.744 0 826.752-371.296 826.752-827.616h196.832c0 564.512-459.296 1024-1023.584 1024z" />
<glyph unicode="&#x3f;" glyph-name="uni3F" d="M784 544h-16v192c0 105.856-86.144 192-192 192h-128c-105.856 0-192-86.144-192-192v-192h-16c-26.4 0-48-21.6-48-48v-480c0-26.4 21.6-48 48-48h544c26.4 0 48 21.6 48 48v480c0 26.4-21.6 48-48 48zM384 736c0 35.328 28.704 64 64 64h128c35.296 0 64-28.672 64-64v-192h-256v192z" />
<glyph unicode="&#x40;" glyph-name="uni40" d="M832 241.76h192c0 282.784-229.216 512-512 512s-512-229.216-512-512h64c0 212.064 171.936 384 384 384 112.832 0 214.272-48.64 284.512-126.112l-200.448-160.352c-6.496 1.344-13.216 2.048-20.096 2.048-54.976 0-99.552-44.608-99.552-99.552s44.608-99.552 99.552-99.552 99.552 44.608 99.552 99.552c0 6.88-0.704 13.6-2.016 20.096l156.32 195.424c41.792-61.472 66.176-135.68 66.176-215.552z" />
<glyph unicode="&#x41;" glyph-name="uni41" d="M512 890.656c-244.48 0-442.656-198.176-442.656-442.656s198.176-442.656 442.656-442.656 442.656 198.176 442.656 442.656-198.176 442.656-442.656 442.656zM567.328 171.328h-110.656v110.656h110.656v-110.656zM733.344 503.328c0-61.024-49.632-110.656-110.656-110.656h-55.232c0-0.032-0.064-0.064-0.064-0.064l-0.032-55.296h-110.656v55.328c0 61.024 49.632 110.656 110.656 110.656h55.232c0 0 0.064 0.064 0.096 0.096v110.496c-0.032 0.032-0.064 0.064-0.096 0.096l-276.576-0.032v110.72h276.672c61.024 0 110.656-49.632 110.656-110.656v-110.688z" />
<glyph unicode="&#x42;" glyph-name="uni42" d="M768 512v-128h-320v384h128v-256h192zM512 960c-282.784 0-512-229.216-512-512s229.216-512 512-512 512 229.216 512 512-229.216 512-512 512zM512 64c-212.064 0-384 171.936-384 384s171.936 384 384 384 384-171.936 384-384-171.936-384-384-384z" />
<glyph unicode="&#x43;" glyph-name="uni43" d="M832 896h-640l-192-192v-672c0-17.664 14.336-32 32-32h960c17.632 0 32 14.336 32 32v672l-192 192zM640 320v-192h-256v192h-192l320 256 320-256h-192zM154.496 768l64 64h586.944l64-64h-714.944z" />
<glyph unicode="&#x44;" glyph-name="uni44" d="M832 896h-640l-192-192v-672c0-17.664 14.336-32 32-32h960c17.664 0 32 14.336 32 32v672l-192 192zM512 128l-320 256h192v192h256v-192h192l-320-256zM154.496 768l64 64h586.976l64-64h-714.976z" />
<glyph unicode="&#x45;" glyph-name="uni45" d="M256 576l256-256 256 256h-512z" />
<glyph unicode="&#x46;" glyph-name="uni46" d="M788.224 346.88l-256 256-256-256h512z" />
<glyph unicode="&#x47;" glyph-name="uni47" d="M575.936 512v-234.176c0-59.392-0.736-93.664 5.536-110.496 6.24-16.736 21.92-34.112 38.976-44.192 22.688-13.6 48.576-20.384 77.76-20.384 51.808 0 82.432 6.848 133.728 40.512v-153.92c-43.712-20.608-81.856-32.608-117.312-40.896-35.552-8.288-73.888-12.448-115.136-12.448-46.816 0-74.432 5.888-110.368 17.664-35.968 11.872-66.688 28.8-92.032 50.528-25.44 21.952-43.040 45.216-52.864 69.888-9.824 24.608-14.688 60.384-14.688 107.232v359.072h-137.44v144.992c40.224 13.056 85.152 31.808 113.792 56.16 28.736 24.48 51.744 53.728 69.12 87.936 17.376 34.144 29.312 77.728 35.84 130.528h165.088v-256h255.968v-192h-255.968z" />
<glyph unicode="&#x48;" glyph-name="uni48" d="M832 832h-640c-105.6 0-192-86.4-192-192v-384c0-105.6 86.4-192 192-192h640c105.6 0 192 86.4 192 192v384c0 105.6-86.4 192-192 192zM384 192v512l320-256-320-256z" />
<glyph unicode="&#x49;" glyph-name="uni49" d="M512-64c0 0 360.032 444.992 360.032 705.984 0 212.064-147.968 318.016-360.032 318.016s-360.032-105.952-360.032-318.016c0-260.992 360.032-705.984 360.032-705.984zM511.552 512c-70.688 0-128 57.312-128 128s57.312 128 128 128 128-57.312 128-128-57.312-128-128-128z" />
<glyph unicode="&#x4a;" glyph-name="uni4A" d="M553.856 832.608c0 0-178.656 0-238.208 0-106.784 0-207.328-80.896-207.328-174.656 0-95.712 72.8-172.992 181.44-172.992 7.584 0 14.912 0.096 22.080 0.672-7.072-13.504-12.096-28.672-12.096-44.512 0-26.624 14.304-48.192 32.448-65.824-13.696 0-26.88-0.384-41.312-0.384-132.256-0.032-234.080-84.288-234.080-171.648 0-86.016 111.584-139.84 243.904-139.84 150.784 0 234.048 85.568 234.048 171.616 0 68.96-20.352 110.272-83.296 154.816-21.536 15.232-62.688 52.288-62.688 74.048 0 25.536 7.296 38.112 45.728 68.128 39.392 30.784 67.296 74.080 67.296 124.416 0 59.904-26.688 118.304-76.8 137.6h75.552l53.312 38.56zM470.624 249.888c1.888-7.968 2.944-16.192 2.944-24.576 0-69.504-44.8-123.84-173.344-123.84-91.456 0-157.472 57.92-157.472 127.392 0 68.128 81.92 124.832 173.344 123.84 21.344-0.224 41.248-3.648 59.264-9.504 49.632-34.528 85.248-54.048 95.264-93.312zM324.256 509.184c-61.344 1.856-119.68 68.64-130.304 149.248-10.56 80.608 30.56 142.24 91.936 140.448 61.376-1.856 119.68-66.528 130.304-147.104 10.56-80.608-30.592-144.448-91.936-142.592zM796.512 661.92v170.688h-56.896v-170.688h-170.688v-56.896h170.688v-170.688h56.896v170.688h170.688v56.896h-170.688z" />
<glyph unicode="&#x4b;" glyph-name="uni4B" d="M876.576-64.096h-729.152c-28.736 0-52.064 23.328-52.064 52.096 0 74.72 31.52 165.12 84.352 241.888 44.224 64.128 98.4 112.416 156.992 140.64-25.856 23.456-48.032 52.096-65.664 84.704-28.192 52.384-43.168 112.896-43.168 175.072 0 86.368 28.48 167.936 80.128 229.792 53.888 64.512 126.368 100 204 100 77.696 0 150.112-35.488 204.032-100.032 51.584-61.856 80.032-143.424 80.032-229.792 0-62.144-14.88-122.656-43.072-175.072-17.664-32.672-39.872-61.248-65.76-84.736 58.624-28.192 112.864-76.48 156.992-140.608 52.832-76.736 84.384-167.168 84.384-241.888 0.032-28.736-23.328-52.064-52.032-52.064zM206.144 40.064h611.776c-10.048 42.656-30.944 89.408-59.424 130.752-44.928 65.344-101.056 108.064-158.016 120.352-24 5.184-41.088 26.4-41.088 50.88v37.184c0 18.752 10.048 36.032 26.304 45.312 64.48 36.672 106.208 117.472 106.208 205.76 0 124.448-80.704 225.696-179.904 225.696s-179.904-101.248-179.904-225.696c0-88.256 41.728-169.056 106.272-205.76 16.224-9.28 26.272-26.528 26.272-45.312v-37.184c0-24.544-17.152-45.696-41.088-50.88-56.96-12.288-113.024-55.008-158.048-120.352-28.416-41.344-49.344-88.096-59.36-130.752z" />
<glyph unicode="&#x4c;" glyph-name="uni4C" d="M725.696 803.104c-88.768 0-168-47.264-213.664-116.128-45.44 69.632-124.32 116.128-213.76 116.128-140.8 0-254.944-114.176-254.944-255.008 0-79.2 42.944-156.928 99.648-203.68 2.336-2.816 144.768-134.176 270.336-249.888v186.88c0 127.616 195.136 126.752 195.136 0v-188.512l256.512 241.824c62.88 50.944 115.712 124.064 115.712 213.376 0 140.8-114.080 255.008-254.976 255.008zM282.976 347.040c-3.456-4-8.352-6.016-13.248-6.016-4.128 0-8.32 1.504-11.68 4.512-76.128 67.424-114.752 137.888-114.752 209.312v0.8c0 61.44 37.472 131.2 87.168 162.432 8.224 5.12 19.168 2.624 24.352-5.632s2.688-19.2-5.6-24.384c-39.552-24.8-70.56-83.008-70.56-132.448v-0.8c0-60.864 34.592-122.432 102.816-182.88 7.296-6.464 8-17.664 1.504-24.896zM396.64 412.544c-3.264-5.76-9.248-8.992-15.456-8.992-2.88 0-5.888 0.672-8.608 2.24-51.584 28.928-86.336 85.696-86.592 141.376v0.576c0.192 52.992 29.408 101.184 76.384 125.952 8.64 4.512 19.328 1.184 23.872-7.488 4.544-8.64 1.216-19.328-7.424-23.872-35.392-18.56-57.408-54.944-57.536-94.816 0.128-43.488 27.648-88 68.544-110.88 8.576-4.8 11.552-15.552 6.816-24.096zM512.608 457.728c-42.208 0-76.544 34.24-76.544 76.512 0 42.304 34.304 76.512 76.544 76.512 42.368 0 76.608-34.176 76.608-76.512 0-42.272-34.272-76.512-76.608-76.512zM651.392 405.984c-2.72-1.504-5.664-2.176-8.608-2.176-6.176 0-12.192 3.264-15.424 8.992-4.768 8.512-1.728 19.328 6.784 24 40.896 22.88 68.416 67.424 68.544 110.88-0.128 39.936-22.144 76.256-57.504 94.944-8.672 4.512-11.968 15.136-7.424 23.808 4.544 8.64 15.232 11.936 23.872 7.424 46.976-24.672 76.192-72.928 76.384-125.952v-0.512c-0.256-55.744-35.008-112.48-86.624-141.408zM880.704 555.040c0-71.424-38.624-141.888-114.72-209.312-3.36-2.944-7.552-4.448-11.744-4.448-4.864 0-9.728 1.984-13.248 6.016-6.464 7.264-5.792 18.368 1.504 24.864 68.224 60.448 102.848 122.048 102.848 182.88v0.864c0 49.44-30.976 107.616-70.592 132.448-8.256 5.12-10.72 16.064-5.568 24.32s16.064 10.816 24.352 5.632c49.664-31.2 87.168-100.992 87.168-162.368v-0.896z" />
<glyph unicode="&#x4d;" glyph-name="uni4D" d="M512 960c-282.752 0-512-229.216-512-512s229.248-512 512-512c282.816 0 512 229.216 512 512s-229.184 512-512 512zM512 32c-229.76 0-416 186.24-416 416s186.24 416 416 416c229.824 0 416-186.24 416-416s-186.176-416-416-416zM384 672l384-224-384-224v448z" />
<glyph unicode="&#x4e;" glyph-name="uni4E" d="M256 320c0 0 58.816 192 384 192v-192l384 256-384 256v-192c-256 0-384-159.68-384-320zM704 192h-576v384h125.888c10.080 11.904 20.896 23.328 32.512 34.176 43.968 41.184 96.576 72.64 156.128 93.824h-442.528v-640h832v268.64l-128-85.312v-55.328z" />
<glyph unicode="&#x4f;" glyph-name="uni4F" d="M896 640c-35.2 0-64-28.8-64-64v-256c0-35.2 28.8-64 64-64s64 28.8 64 64v256c0 35.2-28.8 64-64 64zM128 640c-35.2 0-64-28.8-64-64v-256c0-35.2 28.8-64 64-64s64 28.8 64 64v256c0 35.2-28.8 64-64 64zM224 224c0-53.024 42.976-96 96-96h32v-128c0-35.2 28.8-64 64-64s64 28.8 64 64v128h64v-128c0-35.2 28.8-64 64-64s64 28.8 64 64v128h32c53.024 0 96 42.976 96 96v352h-576v-352zM630.592 870.496l40.512 77.824c2.048 3.872 0.544 8.736-3.36 10.752s-8.768 0.544-10.784-3.36l-41.12-78.976c-32.256 12.416-67.232 19.264-103.84 19.264s-71.584-6.848-103.808-19.328l-41.088 79.040c-2.016 3.904-6.88 5.44-10.784 3.392s-5.44-6.88-3.36-10.816l40.512-77.824c-90.656-40.992-156.288-127.52-167.648-230.464h572.48c-11.456 102.912-77.088 189.472-167.712 230.496zM384 689.6c-25.632 0-46.4 20.768-46.4 46.4s20.768 46.4 46.4 46.4 46.4-20.768 46.4-46.4-20.768-46.4-46.4-46.4zM640 689.6c-25.632 0-46.4 20.768-46.4 46.4s20.768 46.4 46.4 46.4 46.4-20.768 46.4-46.4-20.768-46.4-46.4-46.4z" />
<glyph unicode="&#x50;" glyph-name="uni50" d="M791.488 415.904c-1.28 129.728 105.76 191.872 110.528 194.976-60.192 88.032-153.888 100.064-187.264 101.472-79.744 8.064-155.584-46.944-196.064-46.944-40.384 0-102.816 45.792-168.96 44.544-86.912-1.248-167.072-50.496-211.808-128.384-90.272-156.672-23.136-388.8 64.896-515.936 43.008-62.176 94.304-132.064 161.632-129.568 64.832 2.592 89.376 41.952 167.744 41.952 78.4 0 100.416-41.952 169.056-40.672 69.76 1.312 113.984 63.392 156.704 125.792 49.376 72.192 69.728 142.048 70.912 145.632-1.504 0.704-136.032 52.256-137.376 207.136zM662.56 796.512c35.744 43.328 59.872 103.488 53.28 163.488-51.488-2.112-113.92-34.304-150.816-77.536-33.152-38.368-62.144-99.584-54.368-158.432 57.472-4.544 116.128 29.184 151.904 72.48z" />
<glyph unicode="&#x51;" glyph-name="uni51" d="M401.344 881.344c25.664 25.664 46.656 16.96 46.656-19.328v-828c0-36.32-20.992-44.992-46.656-19.328l-241.344 241.312h-160v384h160l241.344 241.344z" />
<glyph unicode="&#x52;" glyph-name="uni52" d="M128 448c0-148.032 88.32-275.968 216.416-336.576l-183.168 488.8c-21.312-46.528-33.248-97.984-33.248-152.224zM771.232 466.88c0 46.24-17.024 78.24-31.616 103.136-19.456 30.816-37.76 56.896-37.76 87.744 0 34.368 26.752 66.368 64.512 66.368 1.696 0 3.328-0.192 4.96-0.32-68.32 60.928-159.36 98.208-259.328 98.208-134.144 0-252.192-67.072-320.832-168.608 9.024-0.288 17.504-0.48 24.704-0.48 40.16 0 102.336 4.736 102.336 4.736 20.672 1.184 23.136-28.448 2.464-30.816 0 0-20.8-2.368-43.936-3.552l139.808-405.12 84.032 245.44-59.776 159.648c-20.672 1.184-40.32 3.52-40.32 3.52-20.672 1.184-18.24 32 2.432 30.816 0 0 63.392-4.704 101.12-4.704 40.16 0 102.336 4.704 102.336 4.704 20.672 1.184 23.136-28.448 2.432-30.816 0 0-20.832-2.368-43.936-3.52l138.816-401.952 38.304 124.672c16.608 51.776 29.248 88.896 29.248 120.896zM518.752 415.328l-115.232-326.080c34.368-9.888 70.784-15.264 108.48-15.264 44.672 0 87.616 7.52 127.52 21.184-1.024 1.632-1.984 3.328-2.752 5.184l-118.016 314.976zM848.96 627.424c1.664-11.936 2.592-24.672 2.592-38.496 0-37.92-7.328-80.608-29.216-133.952l-117.28-330.24c114.176 64.832 190.944 185.312 190.944 323.264 0 65.024-17.056 126.176-47.040 179.424zM512 960c-282.784 0-512-229.216-512-512s229.216-512 512-512 512 229.216 512 512-229.216 512-512 512zM512 0c-247.424 0-448 200.576-448 448s200.576 448 448 448 448-200.576 448-448-200.576-448-448-448z" />
<glyph unicode="&#x53;" glyph-name="uni53" d="M549.024 218.976c-12.32 0-24.576 4.672-33.952 14.048-18.784 18.752-18.784 49.152 0 67.872 81.056 81.088 81.056 213.024 0 294.112-18.784 18.752-18.784 49.152 0 67.872 18.752 18.752 49.12 18.752 67.84 0 118.528-118.528 118.528-311.36 0-429.92-9.312-9.28-21.6-13.984-33.888-13.984zM401.344 881.344c25.696 25.664 46.656 16.96 46.656-19.328v-828c0-36.32-20.96-44.992-46.656-19.328l-241.344 241.312h-160v384h160l241.344 241.344z" />
<glyph unicode="&#x54;" glyph-name="uni54" d="M719.52 128.48c-12.32 0-24.608 4.672-33.984 14.048-18.752 18.752-18.752 49.152 0 67.872 131.040 131.008 131.040 344.16 0 475.168-18.752 18.752-18.752 49.152 0 67.872 18.752 18.752 49.152 18.752 67.872 0 81.696-81.568 126.592-190.080 126.592-305.44s-44.896-223.872-126.528-305.472c-9.376-9.376-21.664-14.048-33.952-14.048zM549.024 218.976c-12.32 0-24.576 4.672-33.952 14.048-18.784 18.752-18.784 49.152 0 67.872 81.056 81.088 81.056 213.024 0 294.112-18.784 18.752-18.784 49.152 0 67.872 18.752 18.752 49.12 18.752 67.84 0 118.528-118.528 118.528-311.36 0-429.92-9.312-9.28-21.6-13.984-33.888-13.984zM401.344 881.344c25.696 25.664 46.656 16.96 46.656-19.328v-828c0-36.32-20.96-44.992-46.656-19.328l-241.344 241.312h-160v384h160l241.344 241.344z" />
<glyph unicode="&#x55;" glyph-name="uni55" d="M0 448c0-123.712 100.256-224 224-224 123.68 0 224 100.288 224 224s-100.32 224-224 224c-123.744 0-224-100.288-224-224zM576 448c0-123.712 100.256-224 224-224 123.68 0 224 100.288 224 224s-100.32 224-224 224c-123.744 0-224-100.288-224-224z" />
<glyph unicode="&#x56;" glyph-name="uni56" d="M826.048 37.952c-12.32 0-24.608 4.672-33.984 14.048-18.752 18.752-18.752 49.152 0 67.872 87.68 87.68 135.936 204.192 135.936 328.128s-48.256 240.448-135.904 328.096c-18.752 18.752-18.752 49.152 0 67.872 18.752 18.752 49.152 18.752 67.872 0 105.76-105.76 164.032-246.4 164.032-395.968s-58.24-290.208-164.032-395.968c-9.376-9.376-21.632-14.080-33.92-14.080zM684.288 128.48c-12.32 0-24.608 4.672-33.984 14.048-18.752 18.752-18.752 49.152 0 67.872 131.008 131.008 131.008 344.16 0 475.168-18.752 18.752-18.752 49.152 0 67.872 18.752 18.752 49.152 18.752 67.872 0 81.632-81.568 126.56-190.048 126.56-305.44s-44.928-223.872-126.528-305.472c-9.344-9.376-21.632-14.048-33.92-14.048zM536.224 218.976c-12.288 0-24.608 4.672-33.984 14.048-18.752 18.752-18.752 49.152 0 67.872 81.088 81.088 81.088 213.024 0 294.112-18.752 18.752-18.752 49.152 0 67.872 18.752 18.752 49.152 18.752 67.872 0 118.528-118.528 118.528-311.36 0-429.92-9.344-9.28-21.6-13.984-33.888-13.984zM401.344 881.344c25.664 25.664 46.656 16.96 46.656-19.328v-828c0-36.32-20.992-44.992-46.656-19.328l-241.344 241.312h-160v384h160l241.344 241.344z" />
<glyph unicode="&#x57;" glyph-name="uni57" d="M0 651.648l41.6-54.56c0 0 85.792 67.616 114.368 33.824 28.576-33.824 137.728-441.952 174.176-517.28 31.776-65.984 119.488-153.312 215.68-90.976 96.128 62.336 415.84 335.296 473.056 657.6 57.184 322.24-384.704 254.72-431.488-25.984 116.96 70.208 179.392-28.576 119.552-140.416-59.744-111.744-114.368-184.608-142.944-184.608-28.544 0-50.496 74.752-83.2 205.44-33.76 135.104-33.568 378.464-174.080 350.88-132.544-25.92-306.72-233.92-306.72-233.92z" />
<glyph unicode="&#x58;" glyph-name="uni58" d="M832 832h-640c-105.6 0-192-86.4-192-192v-384c0-105.6 86.4-192 192-192h640c105.6 0 192 86.4 192 192v384c0 105.6-86.4 192-192 192zM960 256c0-33.984-13.376-66.048-37.664-90.336s-56.352-37.664-90.336-37.664h-640c-33.984 0-66.048 13.376-90.336 37.664s-37.664 56.352-37.664 90.336v384c0 33.984 13.376 66.048 37.664 90.336s56.352 37.664 90.336 37.664h640c33.984 0 66.048-13.376 90.336-37.664s37.664-56.352 37.664-90.336v-384zM384 192l320 256-320 256v-512z" />
<glyph unicode="&#x59;" glyph-name="uni59" d="M623.2 958.24l37.024-365.024 338.528-141.664-335.744-148.096-30.112-365.696-244.544 273.568-357.088-84.352 362.432 317.152-368.448 313.536 358.592-77.536z" />
<glyph unicode="&#x5a;" glyph-name="uni5A" d="M512 896c-247.424 0-448-200.576-448-448s200.576-448 448-448 448 200.576 448 448-200.576 448-448 448zM781.248 269.248l-90.528-90.528-178.72 178.784-178.752-178.752-90.496 90.496 178.752 178.752-178.752 178.752 90.496 90.496 178.752-178.752 178.752 178.752 90.528-90.496-178.784-178.752 178.752-178.752z" />
<glyph unicode="&#x5b;" glyph-name="uni5B" d="M898.726 852.614h-70.356v-140.742h-211.162v140.742h-211.096v-140.742h-211.098v140.742h-70.388c-38.706 0-70.388-31.682-70.388-70.356v-774.1c0-38.674 31.68-70.388 70.388-70.388h774.1c38.706 0 70.388 31.682 70.388 70.386v774.1c-0.032 38.674-31.682 70.356-70.386 70.356zM265.37 8.192h-140.58c-0.032 0.064-0.096 0.064-0.13 0.13v140.612h140.742v-140.742zM265.37 219.29h-140.742v140.742h140.742v-140.742zM265.37 430.418h-140.742v140.71h140.742v-140.71zM476.5 8.192h-140.774v140.742h140.774v-140.742zM476.5 219.29h-140.774v140.742h140.774v-140.742zM476.5 430.418h-140.774v140.71h140.774v-140.71zM687.63 8.192h-140.774v140.742h140.774v-140.742zM687.63 219.29h-140.774v140.742h140.774v-140.742zM687.63 430.418h-140.774v140.71h140.774v-140.71zM898.726 8.288c-0.032-0.064-0.064-0.064-0.13-0.13h-140.614v140.742h140.742v-140.612zM898.726 219.29h-140.742v140.742h140.742v-140.742zM898.726 430.418h-140.742v140.71h140.742v-140.71zM335.726 923.002c0 19.434-15.76 35.194-35.194 35.194-19.402 0-35.162-15.76-35.162-35.194v-140.742h70.356v140.742zM757.986 923.002c0 19.434-15.76 35.194-35.194 35.194-19.402 0-35.16-15.76-35.16-35.194v-140.742h70.356v140.742z" />
<glyph unicode="&#x5c;" glyph-name="uni5C" d="M800 928c105.888 0 192-86.144 192-192v-192h-128v192c0 35.328-28.672 64-64 64h-128c-35.328 0-64-28.672-64-64v-192h16c26.4 0 48-21.6 48-48v-480c0-26.4-21.6-48-48-48h-544c-26.4 0-48 21.6-48 48v480c0 26.4 21.6 48 48 48h400v192c0 105.856 86.112 192 192 192h128z" />
<glyph unicode="&#x5d;" glyph-name="uni5D" horiz-adv-x="854" d="M0 960v-1024l853.328 512.016-853.328 511.984zM143.96 735.936l480.038-287.952-480.038-288.016v575.97z" />
<glyph unicode="&#x5e;" glyph-name="uni5E" horiz-adv-x="1170" d="M955.462 960h-740.61c-118.192 0-214.854-96.698-214.854-214.818v-809.218l219.456 219.492h736.006c118.228 0 214.854 96.736 214.854 214.89v374.834c0 118.12-96.626 214.818-214.854 214.818zM1024.036 370.312c0-37.114-31.46-68.646-68.61-68.646h-809.146v443.516c0 37.114 31.424 68.574 68.574 68.574h740.644c37.078 0 68.574-31.424 68.574-68.574v-374.87h-0.036zM292.56 521.158c0-40.412 32.764-73.178 73.14-73.178 40.412 0 73.178 32.728 73.178 73.178 0 40.376-32.728 73.178-73.178 73.178-40.34 0-73.14-32.8-73.14-73.178zM512.018 521.158c0-40.412 32.728-73.178 73.14-73.178s73.212 32.728 73.212 73.178c0 40.376-32.764 73.178-73.212 73.178s-73.14-32.8-73.14-73.178zM731.476 521.158c0-40.412 32.692-73.178 73.14-73.178s73.14 32.728 73.14 73.178c0 40.376-32.692 73.178-73.14 73.178s-73.14-32.8-73.14-73.178z" />
<glyph unicode="&#x5f;" glyph-name="uni5F" horiz-adv-x="1098" d="M346.284 959.966v-78.78l-178.756-25.122 11.604-82.636-174.182-49.972 225.792-787.456 695.536 199.476 38.058 5.326h132.882v819.2l-750.932-0.034zM273.168 12.528l-191.694 668.534 106.29 30.48 93.73-666.726 204.596 28.774-212.924-61.064zM334.2 114.688l-96.802 688.708 108.884 15.292v-677.888h173.602l-185.686-26.112zM1028.95 209.034h-614.4v682.668h614.4v-682.668zM619.35 755.166l341.332-204.8-341.334-204.8v409.6z" />
<glyph unicode="&#x60;" glyph-name="uni60" horiz-adv-x="1034" d="M904.568 835.948h-257.664c-5.716 0-20.864-2.712-39.014-10.27-18.15-7.494-30.812-16.278-34.848-20.314l-426.318-426.252 301.004-301.004 426.286 426.286c4.038 4.036 12.79 16.666 20.316 34.848 7.524 18.214 10.238 33.33 10.238 39.014v257.696zM936.798 964.78v0c53.16 0 96.632-43.504 96.632-96.632v-289.992c0-53.128-30.714-127.378-68.308-164.938l-449.054-449.022c-18.798-18.828-43.6-28.196-68.308-28.196-24.804 0-49.544 9.398-68.372 28.196l-346.512 346.512c-37.594 37.592-37.594 99.054 0 136.646l449.054 449.086c37.592 37.592 111.778 68.34 164.972 68.34h289.894zM647.678 675.434c0-53.29 43.148-96.438 96.406-96.438s96.438 43.148 96.438 96.438c0 53.258-43.182 96.438-96.438 96.438-53.256 0.032-96.406-43.148-96.406-96.438z" />
<glyph unicode="&#x61;" glyph-name="uni61" d="M512 960c-282.752 0-512-229.216-512-512s229.248-512 512-512c282.816 0 512 229.216 512 512s-229.184 512-512 512zM512 32c-229.76 0-416 186.24-416 416s186.24 416 416 416c229.824 0 416-186.24 416-416s-186.176-416-416-416zM320 640h384v-384h-384v384z" />
<glyph unicode="&#x62;" glyph-name="uni62" d="M512 960c-282.752 0-512-229.216-512-512s229.248-512 512-512c282.816 0 512 229.216 512 512s-229.184 512-512 512zM512 32c-229.76 0-416 186.24-416 416s186.24 416 416 416c229.824 0 416-186.24 416-416s-186.176-416-416-416zM320 640h128v-384h-128v384zM576 640h128v-384h-128v384z" />
<glyph unicode="&#x63;" glyph-name="uni63" d="M327.83 758.86l695.494 189.698v-727.142c0-87.274-99.038-158.048-221.282-158.048-122.212 0-221.25 70.774-221.25 158.048 0 87.308 99.038 158.048 221.25 158.048 33.97 0 66.1-5.448 94.85-15.212v325.606l-442.628-120.696v-474.212c0-87.244-99.070-158.048-221.282-158.048s-221.314 70.806-221.314 158.048c0 87.274 99.070 158.082 221.314 158.082 33.97 0 66.102-5.48 94.816-15.244v521.072z" />
<glyph unicode="&#x64;" glyph-name="uni64" horiz-adv-x="1170" d="M585.144-64l-31.928 15.506c-22.6 10.934-553.216 273.006-553.216 671.414 0 185.894 154.842 337.116 345.162 337.116 91.026 0 176.604-34.816 240.018-94.756 63.378 59.94 148.918 94.756 239.982 94.756 190.318 0 345.16-151.224 345.16-337.116 0-398.408-530.616-660.48-553.216-671.378l-31.962-15.542zM345.162 813.714c-109.642 0-198.876-85.576-198.876-190.792 0-155.356 123.722-291.73 227.474-378.698 82.906-69.414 166.986-119.626 211.384-144.164 44.36 24.504 128.512 74.716 211.384 144.164 103.754 86.966 227.474 223.342 227.474 378.698 0 105.216-89.198 190.83-198.876 190.83-73.912 0-141.274-38.986-175.944-101.816l-64.038-116.26-64.072 116.26c-34.596 62.794-101.998 101.778-175.908 101.778z" />
<glyph unicode="&#x65;" glyph-name="uni65" d="M128 448l256 256h-128l-256-256 256-256h128l-256 256zM768 704h-128l256-256-256-256h128l256 256-256 256zM544 832l-160-768h96l160 768h-96z" />
<glyph unicode="&#x66;" glyph-name="uni66" d="M127.69 64.85h893.894v-127.69h-1021.582v1021.648h127.69v-893.958zM287.318 128.726c-52.918 0-95.784 42.864-95.784 95.784 0 52.952 42.864 95.816 95.784 95.816 2.804 0 5.608-0.16 8.346-0.386l102.97 171.586c-9.862 14.986-15.566 32.97-15.566 52.242 0 52.92 42.864 95.784 95.784 95.784 52.952 0 95.782-42.864 95.782-95.784 0-19.272-5.704-37.256-15.534-52.242l102.938-171.586c2.772 0.226 5.576 0.386 8.38 0.386 2.158 0 4.254-0.096 6.35-0.226l169.908 297.406c-10.474 15.404-16.662 33.968-16.662 53.982 0 52.918 42.896 95.784 95.784 95.784 52.952 0 95.784-42.896 95.784-95.784s-42.832-95.784-95.784-95.784c-2.096 0-4.254 0.096-6.35 0.226l-169.908-297.406c10.474-15.404 16.662-34 16.662-54.014 0-52.918-42.832-95.784-95.784-95.784-52.888 0-95.784 42.864-95.784 95.784 0 19.304 5.736 37.256 15.566 52.308l-103.002 171.552c-2.738-0.226-5.544-0.418-8.346-0.418s-5.608 0.192-8.346 0.418l-102.97-171.586c9.862-15.020 15.566-32.97 15.566-52.274 0-52.918-42.896-95.784-95.784-95.784z" />
<glyph unicode="&#x67;" glyph-name="uni67" d="M511.308-60.552c-280.84 0-509.244 228.468-509.244 509.276s228.404 509.276 509.244 509.276c280.808 0 509.278-228.436 509.278-509.244s-228.47-509.31-509.276-509.31zM511.308 822.9c-206.294 0-374.142-167.88-374.142-374.174 0-206.36 167.848-374.142 374.142-374.142 206.36 0 374.142 167.782 374.142 374.142 0 206.296-167.782 374.174-374.142 374.174zM302.014 355.682c46.022 0 83.312 37.288 83.312 83.312s-37.288 83.312-83.312 83.312c-45.99 0-83.312-37.288-83.312-83.312s37.29-83.312 83.312-83.312zM510.276 355.682c46.022 0 83.344 37.288 83.344 83.312s-37.322 83.312-83.344 83.312c-45.99 0-83.31-37.288-83.31-83.312s37.322-83.312 83.312-83.312zM718.568 355.682c46.022 0 83.312 37.288 83.312 83.312s-37.288 83.312-83.312 83.312-83.312-37.288-83.312-83.312 37.288-83.312 83.312-83.312z" />
<glyph unicode="&#x68;" glyph-name="uni68" d="M894.228 415.56v-414.084h-764.47v414.084h95.558v-318.538h573.366v318.538h95.544zM1021.634 401.206l-509.628 395.57-509.654-395.57v129.418l509.654 395.61 509.642-395.61v-129.418z" />
<glyph unicode="&#x69;" glyph-name="uni69" d="M512 960c-282.784 0-512-229.216-512-512s229.216-512 512-512 512 229.216 512 512-229.216 512-512 512zM512 32c-229.76 0-416 186.24-416 416s186.24 416 416 416c229.76 0 416-186.24 416-416s-186.24-416-416-416zM448 704h128v-128h-128v128zM640 192h-256v64h64v192h-64v64h192v-256h64v-64z" />
<glyph unicode="&#x6d;" glyph-name="uni6D" d="M992 576h-352v352c0 17.632-14.368 32-32 32h-192c-17.664 0-32-14.368-32-32v-352h-352c-17.664 0-32-14.368-32-32v-192c0-17.696 14.336-32 32-32h352v-352c0-17.696 14.336-32 32-32h192c17.632 0 32 14.304 32 32v352h352c17.632 0 32 14.304 32 32v192c0 17.632-14.368 32-32 32z" />
<glyph unicode="&#x6e;" glyph-name="uni6E" d="M939.438 791.242v-684.202l84.562-24.154v732.512zM106.516 553.258v69.406h-104.108v-347.070h104.108v69.418l138.852-39.638c0-0.558-0.026-1.060-0.026-1.644v-97.544c0-38.154 31.224-69.392 69.406-69.392h138.824c38.182 0 69.392 31.25 69.392 69.392v19.832l347.070-99.16v644.566l-763.518-218.168zM453.406 206.202h-138.662v79.356l138.662-39.664v-39.692zM778.89 240.904l-672.418 188.712v39.038l672.418 182.214v-409.964z" />
<glyph unicode="&#x70;" glyph-name="uni70" d="M512 960c-282.314 0-512-229.686-512-512s229.686-512 512-512c282.314 0 512 229.686 512 512s-229.686 512-512 512zM512 7.442c-242.926 0-440.558 197.632-440.558 440.558s197.632 440.558 440.558 440.558c242.926 0 440.558-197.632 440.558-440.558s-197.632-440.558-440.558-440.558zM513.31 281.302c19.718 0 35.722 16.004 35.722 35.722v404.836c0 19.742-16.004 35.722-35.722 35.722s-35.722-15.978-35.722-35.722v-404.836c0-19.718 16.002-35.722 35.722-35.722zM560.604 186.048c0-26.842-21.76-48.604-48.604-48.604s-48.604 21.76-48.604 48.604c0 26.842 21.762 48.604 48.604 48.604s48.604-21.76 48.604-48.604z" />
<glyph unicode="&#x71;" glyph-name="uni71" horiz-adv-x="1174" d="M1117.192 884.042c38.872-11.076 61.386-51.584 50.264-90.406l-146.268-511.976c-8.972-31.438-37.698-53.076-70.336-53.076h-621.696c-36.892 0-68.012 27.454-72.584 64.052l-65.128 521.070h-118.302c-40.436 0-73.146 32.71-73.146 73.146s32.71 73.146 73.146 73.146h182.866c36.892 0 67.988-27.48 72.56-64.076l65.152-521.070h501.952l131.134 458.926c11.050 38.896 51.536 61.338 90.382 50.264zM292.56 45.72c0-60.606 49.14-109.694 109.72-109.694s109.72 49.116 109.72 109.694c0 60.606-49.14 109.72-109.72 109.72s-109.72-49.116-109.72-109.72zM731.414 45.72c0-60.606 49.164-109.694 109.72-109.694s109.694 49.116 109.694 109.694c0 60.606-49.14 109.72-109.694 109.72s-109.72-49.116-109.72-109.72z" />
<glyph unicode="&#x73;" glyph-name="uni73" d="M1024.128 736c0 28.352-10.24 70.72-57.984 111.168-28.352 24-67.328 44.928-115.776 62.208-91.392 32.704-211.52 50.624-338.304 50.624s-246.912-17.92-338.304-50.624c-48.384-17.28-87.36-38.208-115.776-62.208-47.808-40.448-57.92-82.816-57.92-111.168h-0.128v-576.064h0.128c0-28.288 10.048-70.656 57.92-111.040 28.416-24.128 67.392-44.992 115.776-62.336 91.392-32.704 211.52-50.56 338.304-50.56s246.912 17.856 338.304 50.56c48.448 17.344 87.232 38.208 115.776 62.336 47.744 40.384 57.984 82.752 57.984 111.040v576.064zM231.232 793.664c76.288 24.768 176.064 38.336 280.832 38.336 104.832 0 204.416-13.568 280.832-38.336 74.624-24.064 98.88-49.92 102.72-57.664-3.968-7.808-28.096-33.664-102.72-57.792-76.416-24.64-176-38.208-280.832-38.208s-204.544 13.568-280.832 38.208c-74.496 24.128-98.88 49.984-102.784 57.792 3.904 7.744 28.288 33.6 102.784 57.664zM793.024 102.4c-76.48-24.896-176.128-38.464-280.896-38.464s-204.544 13.568-280.896 38.464c-74.496 23.872-98.88 49.92-102.784 57.536h-0.192v133.376c14.144-6.656 29.248-12.992 45.504-18.752 91.328-32.576 211.52-50.496 338.304-50.496s246.912 17.92 338.304 50.496c16.128 5.76 31.232 11.968 45.312 18.624v-133.248c-3.904-7.616-28.16-33.664-102.656-57.536zM793.024 390.272c-76.48-24.64-176.128-38.208-280.896-38.208s-204.608 13.568-280.896 38.208c-74.496 24-98.88 49.92-102.784 57.728h-0.192v133.248c14.144-6.592 29.248-12.864 45.504-18.688 91.392-32.64 211.52-50.56 338.304-50.56s246.912 17.92 338.304 50.56c16.128 5.824 31.232 12.032 45.312 18.624v-133.184c-3.904-7.808-28.16-33.728-102.656-57.728z" />
<glyph unicode="&#x74;" glyph-name="uni74" horiz-adv-x="1170" d="M1097.216 960h-1024c-40.228 0-73.144-32.914-73.144-73.144v-877.714c0-40.23 32.914-73.142 73.144-73.142h1024c40.23 0 73.144 32.914 73.144 73.144v877.714c0 40.23-32.914 73.144-73.144 73.144zM1097.216 9.288c-0.074 0-0.074-0.146-0.146-0.146h-1023.706c0 0-0.072 0.072-0.146 0.146v877.422c0 0 0.072 0.072 0.146 0.146h1023.78c0 0 0.074-0.072 0.146-0.146l-0.074-877.422zM493.786 228.572h-54.858v585.144h-146.286v-585.144h-54.856c-10.094 0-18.286-8.192-18.286-18.286v-109.714c0-10.094 8.192-18.286 18.286-18.286h256c10.094 0 18.286 8.192 18.286 18.286v109.714c0 10.094-8.192 18.286-18.286 18.286zM676.644 667.428h54.856v-585.144h146.286v585.144h54.856c10.094 0 18.286 8.192 18.286 18.286v109.714c0 10.094-8.192 18.286-18.286 18.286h-256c-10.094 0-18.286-8.192-18.286-18.286v-109.714c0-10.094 8.192-18.286 18.286-18.286z" />
<glyph unicode="&#x76;" glyph-name="uni76" d="M1022.324 128.824v765.946h-1021.294v-765.946h446.818v-63.812h-191.502v-63.812h510.664v63.812h-191.47v63.812h446.786zM128.688 767.112h765.978v-510.664h-765.978v510.664z" />
<glyph unicode="&#x77;" glyph-name="uni77" d="M384 320l128 64 448 448-64 64-448-448-64-128zM289.312 92.896c-31.648 66.72-65.664 100.736-132.384 132.384l99.072 272.8 128 77.92 384 384h-192l-384-384-192-640 640 192 384 384v192l-384-384-77.92-128z" />
<glyph unicode="&#x78;" glyph-name="uni78" horiz-adv-x="1366" d="M683.264 826.624c103.082 0 186.88-83.884 186.88-186.88 0-103.082-83.798-186.88-186.88-186.88s-186.88 83.798-186.88 186.88c0 102.912 83.798 186.88 186.88 186.88zM683.264 921.088c-155.476 0-281.428-126.038-281.428-281.428s126.038-281.516 281.428-281.516c155.392 0 281.344 126.122 281.344 281.514s-125.952 281.428-281.344 281.428v0zM908.374 209.578c93.014 0 168.876-87.552 168.876-195.242h-787.968c0 107.692 75.776 195.242 168.876 195.242h450.218zM926.634 287.828h-486.74c-134.4 0-243.372-126.038-243.372-281.428v-70.4h973.398v70.4c0.086 155.392-108.884 281.428-243.284 281.428v0zM132.266 70.656h-61.61c0 94.806 45.652 144.044 127.658 144.044h10.58c28.502 26.794 62.208 64 98.986 74.836h-109.568c-109.568 0-198.314-102.74-198.314-229.376v-57.26h127.062c0.172 19.542 1.962 49.236 5.206 67.754zM1167.020 289.536h-108.374c36.864-10.836 76.972-51.542 105.472-78.422h9.3c82.006 0 128.172-52.65 128.172-147.456h-67.328c3.156-18.518 5.036-41.216 5.204-60.756h125.866v57.26c0 126.634-88.832 229.376-198.316 229.376zM420.438 426.154c-7.764-1.196-15.532-2.304-23.724-2.304-83.628 0-151.724 68.096-151.724 151.724 0 69.034 46.592 126.804 109.824 145.152 7.168 29.27 17.92 57.088 32.256 82.86-121.686-5.036-218.794-105.046-218.794-228.012 0-126.208 102.314-228.524 228.522-228.524 31.572 0 61.61 6.4 88.916 17.92-24.32 17.578-46.336 38.058-65.28 61.184zM979.028 804.438c14.678-26.368 25.684-54.87 33.024-84.822 61.524-19.798 106.496-76.972 106.496-145.068 0-84.48-68.692-153.088-153.002-153.088-7.51 0-14.506 1.196-21.504 2.048-19.626-23.466-42.326-44.202-67.5-61.78 27.476-11.434 57.344-17.836 89.004-17.836 127.146 0 230.484 103.254 230.484 230.656 0 122.71-96 222.806-217.002 229.888z" />
<glyph unicode="&#x79;" glyph-name="uni79" d="M864 848l-480-480-224 224-160-160 384-384 640 640-160 160z" />
<glyph unicode="&#x7c;" glyph-name="uni7C" horiz-adv-x="878" d="M438.858 834.616c-242.396 0-438.858-196.462-438.858-438.858s196.462-438.858 438.858-438.858 438.858 196.462 438.858 438.856-196.462 438.856-438.858 438.856zM438.858 43.082c-194.742 0-352.658 157.914-352.658 352.658s157.914 352.678 352.658 352.678 352.658-157.914 352.658-352.658-157.914-352.678-352.658-352.678zM853.010 678.692c15.706 27.466 24.704 59.3 24.704 93.222 0 103.9-84.188 188.086-188.086 188.086-60.544 0-114.432-28.616-148.808-73.070 129.206-26.662 240.202-103.076 312.192-208.238zM336.914 886.93c-34.394 44.452-88.284 73.070-148.826 73.070-103.9 0-188.086-84.188-188.086-188.086 0-33.902 8.996-65.754 24.704-93.222 71.99 105.162 182.986 181.576 312.21 208.238zM376.154 646.51h62.702v-313.472h-62.702v313.472zM438.858 395.758h188.086v-62.702h-188.086v62.702z" />
<glyph unicode="&#xa3;" glyph-name="uniA3" d="M0.064 448c0-282.752 229.248-512 512-512 282.816 0 512 229.248 512 512s-229.184 512-512 512c-282.752 0-512-229.248-512-512zM896.064 448c0-73.28-20.48-141.696-56.064-199.872l-527.872 527.808c58.24 35.584 126.656 56.064 199.936 56.064 212.032 0 384-171.968 384-384zM128.064 448c0 73.28 20.48 141.632 56.064 199.936l527.872-527.808c-58.24-35.648-126.656-56.128-199.936-56.128-212.032 0-384 171.968-384 384z" />
<glyph unicode="&#xb0;" glyph-name="uniB0" d="M0.376 482.132l-0.376 332.868 409.6 55.636v-388.506h-409.226zM477.868 880.538l545.998 79.462v-477.868h-545.996v398.404zM1024 413.866l-0.136-477.866-545.996 76.8v401.068h546.134zM409.6 21.504l-409.26 56.082-0.034 336.282h409.294v-392.364z" />
<glyph unicode="&#xb1;" glyph-name="uniB1" d="M1012.998 452.339l-74.764 52.773v417.203c0 14.357-11.633 25.99-25.99 25.99h-800.487c-14.357 0-25.99-11.633-25.99-25.99v-417.203l-74.764-52.773c-6.899-4.869-11.002-12.79-11.002-21.232v-457.421c0-14.357 11.633-25.99 25.99-25.99h972.020c14.357 0 25.99 11.633 25.99 25.99v457.421c0 8.442-4.103 16.363-11.002 21.232zM946.554 435.618l-8.32-3.916v9.79l8.32-5.874zM886.254 407.383l-374.254-176.263-374.254 176.263v488.942h748.508v-488.942zM85.766 431.699l-8.324 3.916 8.324 5.877v-9.793zM51.98-0.325v390.478l448.956-211.273c3.503-1.649 7.288-2.474 11.065-2.474 3.781 0 7.565 0.825 11.065 2.474l448.956 211.273v-390.478h-920.041zM408.384 537.696c7.918-7.87 18.356-25.297 21.741-36.233l11.616-47.624c2.835-11.64 13.265-19.835 25.248-19.835h79.629c11.98 0 22.41 8.189 25.248 19.829l11.626 47.641c3.372 10.905 13.806 28.339 21.734 36.223 4.81 4.779 47.004 48.261 47.004 101.804 0 80.305-65.238 145.637-145.429 145.637-80.194 0-145.436-65.335-145.436-145.637 0.003-53.546 42.208-97.025 47.017-101.804zM506.805 733.157c51.526 0 93.449-42.013 93.449-93.657 0-27.102-22.902-56.107-31.676-64.943-14.326-14.246-29.417-39.581-35.107-58.924-0.114-0.388-0.218-0.78-0.315-1.171l-6.951-28.478h-38.801l-6.944 28.471c-0.094 0.402-0.204 0.8-0.322 1.199-5.711 19.364-20.806 44.689-35.055 58.851-8.826 8.889-31.732 37.893-31.732 64.995 0 51.644 41.923 93.657 93.456 93.657zM535.391 410.315h-57.178c-14.357 0-25.99-11.633-25.99-25.99s11.633-25.99 25.99-25.99h57.178c14.357 0 25.99 11.633 25.99 25.99s-11.633 25.99-25.99 25.99zM507.717 342.741h-1.826c-14.357 0-25.99-11.633-25.99-25.99s11.633-25.99 25.99-25.99h1.826c14.357 0 25.99 11.633 25.99 25.99s-11.637 25.99-25.99 25.99zM505.887 815.756h1.826c14.357 0 25.99 11.633 25.99 25.99s-11.633 25.99-25.99 25.99h-1.826c-14.357 0-25.99-11.633-25.99-25.99s11.637-25.99 25.99-25.99zM349.948 770.707h1.826c14.357 0 25.99 11.633 25.99 25.99s-11.633 25.99-25.99 25.99h-1.826c-14.357 0-25.99-11.633-25.99-25.99s11.637-25.99 25.99-25.99zM661.826 770.707h1.826c14.357 0 25.99 11.633 25.99 25.99s-11.633 25.99-25.99 25.99h-1.826c-14.357 0-25.99-11.633-25.99-25.99s11.637-25.99 25.99-25.99zM720.737 644.223h1.826c14.357 0 25.99 11.633 25.99 25.99s-11.633 25.99-25.99 25.99h-1.826c-14.357 0-25.99-11.633-25.99-25.99s11.637-25.99 25.99-25.99zM301.434 644.223h1.826c14.357 0 25.99 11.633 25.99 25.99s-11.633 25.99-25.99 25.99h-1.826c-14.357 0-25.99-11.633-25.99-25.99s11.637-25.99 25.99-25.99z" />
<glyph unicode="&#xb2;" glyph-name="uniB2" d="M512 960c-282.778 0-512-229.222-512-512 0-282.803 229.222-512 512-512s512 229.197 512 512c0 282.778-229.222 512-512 512zM512 32c-229.76 0-416 186.24-416 416s186.24 416 416 416 416-186.24 416-416-186.24-416-416-416zM690.099 640.205c-11.341 21.734-26.189 39.757-44.595 54.093s-39.245 25.651-62.438 33.894c-23.27 8.269-46.95 12.39-71.066 12.39s-47.821-4.122-71.040-12.365c-23.219-8.243-44.058-19.558-62.464-33.894-18.406-14.362-33.254-32.384-44.57-54.093-11.29-21.709-16.947-45.133-16.947-70.272 0-39.373 13.082-73.421 39.245-102.093 11.418-12.442 20.864-23.501 28.365-33.152 7.501-9.626 15.053-21.786 22.682-36.378 7.603-14.566 11.93-28.262 12.954-40.96-11.93-7.117-17.894-17.51-17.894-31.258 0-9.37 3.174-17.51 9.523-24.371-6.349-6.861-9.523-14.976-9.523-24.371 0-13.21 5.709-23.501 17.126-30.874-3.302-5.837-4.941-11.827-4.941-17.869 0-11.699 3.994-20.736 12.006-27.085 7.962-6.4 17.766-9.549 29.466-9.549 5.069-11.162 12.698-20.070 22.861-26.65 10.138-6.63 21.197-9.933 33.126-9.933s22.963 3.302 33.152 9.933c10.138 6.579 17.741 15.488 22.861 26.65 11.699 0 21.504 3.149 29.491 9.523 7.987 6.349 12.006 15.386 12.006 27.085 0 6.042-1.587 12.058-4.941 17.869 11.443 7.373 17.152 17.664 17.152 30.874 0 9.395-3.2 17.536-9.549 24.371 6.349 6.886 9.549 15.002 9.549 24.371 0 13.747-5.99 24.115-17.946 31.258 1.101 12.672 5.402 26.368 13.005 40.96 7.654 14.592 15.155 26.752 22.656 36.378 7.501 9.651 16.998 20.71 28.39 33.152 26.138 28.672 39.245 62.72 39.245 102.093 0 25.139-5.658 48.563-16.947 70.272zM632.397 501.35c-2.56-2.765-6.451-6.963-11.648-12.57-5.197-5.581-9.088-9.779-11.597-12.57-32.512-38.861-50.406-76.672-53.76-113.485h-86.835c-3.302 36.813-21.222 74.624-53.709 113.485-2.56 2.79-6.4 6.989-11.622 12.57-5.222 5.606-9.088 9.779-11.622 12.57-17.254 20.070-25.907 42.931-25.907 68.582 0 18.278 4.403 35.302 13.158 51.046 8.755 15.718 20.198 28.646 34.278 38.682 14.106 10.035 29.722 17.894 46.874 23.603 17.126 5.734 34.483 8.576 51.994 8.576 17.536 0 34.867-2.842 52.019-8.576 17.152-5.709 32.742-13.568 46.848-23.603s25.498-22.938 34.304-38.682c8.755-15.744 13.107-32.768 13.107-51.046-0.026-25.651-8.627-48.512-25.882-68.582zM549.888 624.768c-12.57 4.045-25.216 6.093-37.888 6.093-3.302 0-6.17-1.203-8.576-3.635s-3.61-5.248-3.61-8.576c0-3.302 1.203-6.144 3.61-8.55 2.406-2.432 5.274-3.635 8.576-3.635 13.21 0 26.65-3.174 40.397-9.523 13.696-6.349 20.557-15.386 20.557-27.059 0-3.302 1.203-6.17 3.661-8.576 2.355-2.406 5.248-3.61 8.55-3.61s6.144 1.203 8.55 3.61 3.661 5.274 3.661 8.576c0 13.21-4.813 24.627-14.362 34.278-9.523 9.702-20.557 16.538-33.126 20.608z" />
<glyph unicode="&#xb3;" glyph-name="uniB3" d="M1003.311 837.142c-1.915 4.848-6.329 8.259-11.504 8.892-5.16 0.631-10.276-1.617-13.303-5.86-17.97-25.196-41.552-33.594-68.869-43.32-22.026-7.846-44.804-15.953-69.421-33.627-34.815-24.994-50.74-59.065-42.799-91.357l-0.849-1.088c-14.538 21.090-30.356 40.596-47.049 58.014-78.099 81.491-187.228 130.484-299.414 134.412-4.942 0.173-9.965 0.261-14.929 0.261-125.269 0-245.171-56-328.96-153.636-83.35-97.132-120.293-223.574-101.353-346.906 1.583-10.309 3.565-20.725 5.895-30.965 30.806-135.595 109.489-238.745 215.875-282.992 26.224-10.909 52.676-16.437 78.611-16.437 64.436 0 120.718 34.464 154.418 94.555 12.81 22.865 21.076 46.511 24.558 70.286 2.053 14.033 0.65 28.054-0.711 41.642-1.401 13.986-2.724 27.203-0.607 40.511 4.852 30.505 26.16 48.72 57.002 48.72 8.773 0 17.738-1.444 26.691-4.295-10.482-19.224-20.002-37.581-28.32-54.596-17.629-36.059-29.789-65.922-36.154-88.75-3.923-14.078-14.346-51.491 11.070-69.132 8.071-5.601 18.305-7.578 28.955-5.597 9.598 1.783 38.802 7.209 121.789 101.683 22.273 25.352 46.274 54.691 71.36 87.218 64.4 21.69 114.517 75.667 127.775 137.692 3.319 15.505 4.703 32.098 4.113 49.334 24.112 37.264 45.261 72.033 66.543 109.411 0.408 0.721 0.811 1.489 1.209 2.276 30.889 8.46 57.493 32.499 73.11 66.114 22.799 49.061 21.118 112.115-4.734 177.537zM655.158 604.826c-11.172-17.743-30.375-28.336-51.375-28.336-11.402 0-22.555 3.226-32.25 9.332-13.706 8.633-23.238 22.086-26.824 37.88s-0.818 32.044 7.818 45.752c11.174 17.743 30.38 28.336 51.38 28.336 11.404 0 22.555-3.226 32.248-9.335 13.706-8.628 23.235-22.081 26.824-37.877 3.586-15.797 0.811-32.044-7.82-45.752zM733.873 494.948c30.659 45.174 63.082 90.077 93.879 130.019 4.992-4.509 10.575-8.913 16.622-13.109 10.020-6.953 20.5-12.329 31.205-16.010-26.001-44.465-53.959-88.517-87.809-138.375-55.618-81.949-113.447-158.071-162.838-214.346-27.587-31.432-51.73-55.701-70.334-70.732 7.18 22.97 20.903 54.494 40.001 91.846 34.151 66.792 83.613 148.725 139.274 230.707zM195.577 495.337c-11.404 0-22.557 3.226-32.255 9.335-13.706 8.631-23.233 22.078-26.822 37.877-3.589 15.797-0.811 32.046 7.825 45.754 11.167 17.74 30.373 28.334 51.37 28.334 11.407 0 22.56-3.226 32.255-9.335 28.294-17.821 36.818-55.338 19.009-83.627-11.179-17.745-30.387-28.339-51.382-28.339zM132.006 361.797c11.172 17.745 30.375 28.339 51.375 28.339 11.402 0 22.552-3.229 32.252-9.335 13.706-8.631 23.233-22.081 26.822-37.877 3.591-15.792 0.813-32.039-7.825-45.752-11.167-17.738-30.373-28.334-51.37-28.334-11.404 0-22.56 3.226-32.259 9.335-13.706 8.633-23.23 22.081-26.817 37.877-3.584 15.792-0.804 32.041 7.822 45.747zM326.222 721.973c11.172 17.743 30.377 28.336 51.375 28.336 11.4 0 22.552-3.226 32.248-9.332 28.296-17.816 36.82-55.336 19.009-83.63-11.177-17.745-30.382-28.339-51.38-28.339-11.402 0-22.555 3.226-32.25 9.335-13.704 8.628-23.228 22.078-26.817 37.877-3.594 15.794-0.815 32.041 7.815 45.752z" />
<glyph unicode="&#xb4;" glyph-name="uniB4" d="M478.656-9.090c12.089-12.222 25.302-23.098 39.181-33.204h-366.616l-115.902 72.977v929.316h688.132v-421.334c-5.49 0.266-10.861 0.755-16.528 0.755-177.781 0-321.826-144.060-321.826-321.826 0-69.87 22.432-134.191 60.163-186.911h-341.639l64.602-39.788 310.433 0.015zM988.68 217.654c0-155.32-126.289-281.654-281.624-281.654s-281.683 126.334-281.683 281.654c0 155.394 126.363 281.757 281.698 281.757s281.609-126.363 281.609-281.757zM936.833 217.654c0 126.763-103.073 229.925-229.777 229.925-126.763 0-229.851-103.162-229.851-229.925 0-126.703 103.088-229.821 229.851-229.821 126.718 0 229.777 103.118 229.777 229.821zM707.056 286.502c-38.072 0-68.775-30.777-68.775-68.849 0-37.998 30.777-68.745 68.775-68.745 37.968 0 68.775 30.777 68.775 68.745 0.015 38.101-30.821 68.849-68.775 68.849z" />
<glyph unicode="&#xb6;" glyph-name="uniB6" d="M54.681 497.115l65.032 32.278 14.845 374.735-56.554 2.247c-29.928 1.192-55.124-22.063-56.282-51.992l-11.985-301.974c-0.579-14.368 4.597-28.362 14.334-38.917 8.138-8.784 18.965-14.368 30.609-16.377zM353.659 651.83l-59.891 63.125c-2.349 2.486-3.098 6.129-1.907 9.363s4.086 5.516 7.525 5.856l86.482 9.125c2.962 0.306 5.584 2.077 6.98 4.665l41.641 76.438c1.668 3.030 4.903 4.869 8.308 4.733 3.439-0.136 6.469-2.213 7.899-5.346l35.376-79.503c1.226-2.724 3.643-4.665 6.605-5.209l30.337-5.652 164.351 81.511 2.826 71.195-489.477 19.339-13.415-338.644 168.539 83.622c-0.238 1.975-0.817 3.881-2.179 5.38zM811.641 858.707c16.309 0 31.937-3.371 46.203-9.295-8.921 15.935-25.468 27.102-45.046 27.885l-56.52 2.247-1.396-35.070 3.337 1.634c16.479 8.206 35.002 12.598 53.422 12.598zM30.099 411.041c-12.87-6.401-22.676-17.705-27.273-31.222-4.597-13.585-3.541-28.498 2.792-41.369l158.188-318.725c9.397-19.067 28.635-30.099 48.553-30.099 8.103 0 16.309 1.839 24.038 5.686l67.552 33.435-206.298 415.763-67.552-33.469zM1018.348 443.659l-158.188 318.759c-9.363 19.067-28.669 30.099-48.587 30.099-8.035 0-16.309-1.805-24.038-5.686l-67.518-33.503 206.332-415.763 67.518 33.469c12.87 6.401 22.71 17.671 27.273 31.222 4.597 13.619 3.609 28.532-2.792 41.403zM156.894 473.928l206.332-415.729 503.88 249.982-206.332 415.797-503.88-250.050zM675.993 293.438c-1.6-3.064-4.835-4.971-8.172-4.937l-101.43 2.349c-2.962 0.068-5.754-1.328-7.525-3.711l-59.448-82.124c-2.043-2.758-5.448-4.154-8.853-3.541-3.405 0.579-6.197 2.996-7.184 6.367l-29.043 97.174c-0.817 2.826-3.030 5.073-5.856 5.992l-96.493 31.154c-3.269 1.055-5.686 3.881-6.197 7.286-0.511 3.473 0.987 6.81 3.813 8.784l83.35 57.61c2.451 1.668 3.916 4.46 3.916 7.457l-0.238 101.396c0 3.439 1.941 6.605 5.039 8.138 3.064 1.532 6.742 1.192 9.465-0.885l80.626-61.525c2.349-1.805 5.448-2.349 8.274-1.396l96.425 31.529c3.269 1.055 6.81 0.17 9.227-2.281 2.383-2.451 3.235-6.095 2.111-9.329l-35.138-100.102 62.547-85.699c2.077-2.928 2.315-6.673 0.783-9.704z" />
<glyph unicode="&#xb7;" glyph-name="uniB7" d="M475.427 819.42c0 15.086 0 125.418 0 140.578h-365.713c-60.496 0-109.714-49.216-109.714-109.714v-365.713c16.638 0 169.942 0 189.806 0 24.92 0 42.656-24.51 34.658-48.248-1.968-5.842-22.416-33.688-2.826-67.614 23.504-40.704 81.806-40.69 105.298 0 10.972 19.002 11.234 41.816 0.156 61.004-14.068 24.372 3.584 54.858 31.674 54.858h116.662v67.436c-1.688-0.156-3.38-0.278-5.068-0.368-72.514-3.85-141.216 53.244-141.216 134.076-0.002 82.528 71.714 140.556 146.284 133.706zM914.284 959.998h-365.713c0-16.638 0-169.942 0-189.806 0-28.138-30.53-45.72-54.854-31.674-39.834 22.988-91.432-5.094-91.432-52.806 0-47.768 51.634-75.776 91.432-52.806 24.374 14.068 54.854-3.584 54.854-31.674v-116.662h67.436c-2.496 27.21 3.528 54.72 17.718 79.296 51.652 89.454 180.462 89.222 231.98 0 14.066-24.356 20.228-51.938 17.72-79.294 15.086 0 125.418 0 140.578 0v365.711c-0.004 60.498-49.222 109.714-109.718 109.714zM834.192 411.429c-28.138 0-45.714 30.528-31.674 54.854 11.21 19.42 10.684 42.232-0.156 61.006-23.24 40.248-81.672 40.916-105.296 0-10.778-18.666-11.406-41.52-0.158-61.006 14.11-24.444-3.666-54.854-31.676-54.854h-116.662v-67.408c27.014 2.48 54.548-3.428 79.294-17.718 89.468-51.658 89.24-180.456 0-231.982-24.746-14.288-52.284-20.2-79.294-17.718 0-15.090 0-125.458 0-140.6h365.713c60.496 0 109.714 49.218 109.714 109.714v365.711c-16.638 0-169.942 0-189.806 0zM591.289 262.961c-34.464 19.902-60.82-1.104-69.902-3.516-23.242-6.174-45.958 11.408-45.958 35.348v116.636h-67.436c2.48-27.012-3.428-54.548-17.718-79.294-51.61-89.388-180.402-89.336-231.982 0-14.29 24.746-20.198 52.282-17.718 79.294-15.086 0-125.416 0-140.576 0v-365.713c0-60.496 49.218-109.714 109.714-109.714h365.713c0 16.528 0 170.006 0 189.83 0 28.138 30.53 45.72 54.854 31.674 19.338-11.164 42.15-10.73 61.006 0.158 40.956 23.646 40.276 82.042 0.002 105.298z" />
<glyph unicode="&#xb8;" glyph-name="uniB8" d="M85.333 789.333h51.2v-682.667h-51.2v682.667zM887.467 789.333h51.2v-682.667h-51.2v682.667zM972.8 721.067h51.2v-546.133h-51.2v546.133zM0 721.067h51.2v-546.133h-51.2v546.133zM170.667 38.4h682.667v819.2h-682.667v-819.2zM332.8 345.6c29.798 0 56.849-10.957 76.8-28.672v335.872c0 8.397 6.11 15.548 14.404 16.845l324.267 51.2c4.949 0.802 9.95-0.631 13.739-3.891 3.806-3.226 5.99-7.97 5.99-12.954v-358.4c0-56.474-49.766-102.4-110.933-102.4s-110.933 45.926-110.933 102.4 49.766 102.4 110.933 102.4c29.798 0 56.849-10.957 76.8-28.672v162.304l-290.133-45.807v-294.366c0-0.222-0.119-0.427-0.137-0.649-1.382-55.347-50.5-100.011-110.797-100.011-61.167 0-110.933 45.926-110.933 102.4s49.766 102.4 110.933 102.4z" />
<glyph unicode="&#xb9;" glyph-name="uniB9" d="M866.464 839.078c-93.943 21.825-189.499-27.594-227.422-111.749l188.964-282.597c91.242 2.321 172.55 65.554 191.8 157.153 22.277 106.112-46.383 212.341-153.341 237.193zM286.419 409.568c-84.571-71.226-169.688-141.84-253.065-214.435-32.333-28.182-45.126-65.969-20.391-105.177 24.395-38.703 62.889-48.758 102.501-26.636 99.296 55.473 198.347 111.445 298.185 168.037l-122.061 182.552c-1.725-1.446-3.45-2.896-5.168-4.342zM765.316 452.881l-224.964 336.445-306.559-203.39 305.138-456.35 306.55 203.403z" />
<glyph unicode="&#xba;" glyph-name="uniBA" d="M923.458 95l-0.042 0.020-283.416 465.626v275.284c24.778 8.836 42.666 32.294 42.666 60.070 0 35.292-28.708 64-64 64h-213.332c-35.292 0-64-28.708-64-64 0-27.776 17.888-51.234 42.666-60.070v-275.284l-283.458-465.646c-9.958-16.396-15.208-35.188-15.208-54.458 0-57.646 46.916-104.542 104.542-104.542h644.25c57.626 0 104.542 46.896 104.542 104.666-0.002 19.146-5.252 37.938-15.21 54.334zM415.334 448l44.708 73.438c6.084 10.062 9.292 21.542 9.292 33.23v277.332h85.334v-277.334c0-11.688 3.208-23.166 9.334-33.27l44.672-73.396h-193.34z" />
<glyph unicode="&#xbb;" glyph-name="uniBB" d="M333.018 496.019l22.877 0.131 11.525 19.761c5.686 9.761 13.159 18.149 21.787 25.055l96.757 179.788-115.799 215.105c-10.872 20.197-34.947 29.26-56.407 21.264l-184.886-68.848c-12.963-4.837-23.051-15.251-27.474-28.345-4.423-13.072-2.702-27.474 4.706-39.173l206.848-327.288c6.493 1.525 13.138 2.484 20.066 2.549zM922.602 859.953c-4.423 13.116-14.51 23.53-27.474 28.345l-184.865 68.826c-21.526 7.996-45.557-1.068-56.385-21.264l-201.75-374.806c14.053-0.85 27.801-4.728 40.089-11.743l19.783-11.329 19.783 11.308c13.878 7.931 29.565 12.114 45.514 12.114 32.55 0 62.965-17.452 79.349-45.535l11.482-19.739 22.833-0.109c6.907-0.044 13.617-1.002 20.11-2.527l206.826 327.266c7.429 11.7 9.129 26.101 4.706 39.195zM778.981 330.719l-42.376 24.707-0.261 49.043c-0.131 25.142-20.458 45.492-45.644 45.644l-49.021 0.261-24.707 42.354c-12.68 21.744-40.524 29.217-62.42 16.711l-42.55-24.315-42.55 24.336c-21.896 12.506-49.74 5.033-62.399-16.711l-24.729-42.354-49.021-0.283c-25.142-0.153-45.492-20.48-45.644-45.644l-0.261-49.043-42.354-24.707c-21.765-12.702-29.217-40.546-16.711-62.42l24.315-42.55-24.336-42.529c-12.506-21.874-5.033-49.697 16.711-62.42l42.376-24.729 0.261-49.021c0.131-25.142 20.48-45.514 45.644-45.666l49.021-0.261 24.707-42.354c12.68-21.744 40.524-29.195 62.42-16.711l42.55 24.336 42.55-24.336c7.19-4.096 15.033-6.057 22.724-6.057 15.796 0 31.156 8.17 39.653 22.768l24.75 42.376 49.043 0.261c25.142 0.131 45.492 20.48 45.622 45.666l0.261 49.021 42.354 24.707c21.765 12.702 29.217 40.524 16.711 62.42l-24.336 42.529 24.336 42.55c12.549 21.874 5.055 49.74-16.689 62.42zM686.69 260.586l-87.432-63.575 33.378-102.705c2.898-8.867-0.261-18.628-7.822-24.14-3.791-2.745-8.236-4.096-12.68-4.096-4.466 0-8.933 1.351-12.724 4.096l-87.41 63.532-87.41-63.532c-7.56-5.49-17.822-5.49-25.404 0-7.56 5.49-10.719 15.273-7.822 24.14l33.378 102.705-87.41 63.575c-7.582 5.469-10.741 15.251-7.822 24.14 2.876 8.846 11.199 14.924 20.524 14.924h108.043l33.4 102.749c2.898 8.889 11.199 14.902 20.545 14.902s17.648-5.991 20.524-14.902l33.4-102.749h107.999c9.325 0 17.669-6.035 20.524-14.924 2.919-8.867-0.261-18.672-7.778-24.14z" />
<glyph unicode="&#xbc;" glyph-name="uniBC" d="M933.769 800.010c-174.73 0-308.591 49.921-421.785 159.99-113.182-110.069-247.037-159.99-421.752-159.99 0-286.641-59.312-697.252 421.75-864.010 481.096 166.755 421.788 577.366 421.788 864.010zM477.044 295.601l-140.515 140.535 62.914 62.911 77.601-77.619 147.495 147.498 62.911-62.911-210.405-210.414z" />
<glyph unicode="&#xbd;" glyph-name="uniBD" d="M946.086 592.696c0 92.064-74.892 166.956-166.956 166.956-35.498 0-69.278-11.138-97.18-31.136-1.846 10.064-2.994 20.458-2.994 31.136 0 77.838 57.76 144.12 58.284 144.706 19.14 21.392 3.994 55.642-24.892 55.642h-400.696c-28.886 0-44.032-34.25-24.892-55.642 0.566-0.652 58.284-66.152 58.284-144.706 0-10.648-1.154-21.044-3.018-31.116-27.896 19.988-61.67 31.116-97.156 31.116-92.064 0-166.956-74.892-166.956-166.956 0-71.938 45.348-133.654 110.234-156.948-6.206-24.176-10.060-49.934-10.060-76.792 0-36.3 7.092-71.97 17.652-105.478l155.218 224.632c13.396 19.398 42.196 19.166 55.26-0.456l105.782-158.676 105.784 158.674c12.88 19.342 41.67 20.16 55.26 0.456l155.218-224.632c10.558 33.512 17.65 69.18 17.65 105.48 0 26.864-3.896 52.594-10.108 76.774 64.914 23.278 110.282 85.010 110.282 156.966zM287.522 615.782c-2.812-2.942-45.634-48.422-76.866-116.946-38.774 14.040-65.958 50.784-65.958 93.858 0 55.238 44.936 100.174 100.174 100.174 27.942 0 54.016-11.656 72.792-31.608-14.838-27.754-30.164-45.478-30.142-45.478zM511.676 447.336c-18.434 0-33.738 15.27-33.738 33.716s15.302 33.73 33.738 33.73c18.436 0 33.716-15.282 33.716-33.728s-15.282-33.718-33.716-33.718zM621.864 826.434h-219.728c-7.126 25.336-17.242 48.072-27.528 66.782h274.784c-10.284-18.708-20.402-41.446-27.528-66.782zM813.37 498.846c-29.952 65.714-70.582 110.22-76.348 116.36-2.022 2.328-16.7 19.65-30.794 45.944 18.788 20.022 44.906 31.72 72.902 31.72 55.238 0 100.174-44.936 100.174-100.174 0-43.066-27.174-79.804-65.934-93.85zM288.978 69.566c18.886-33.272 27.63-51.24 41.132-78.184 17.066-34.164 51.414-55.38 89.608-55.38h184.564c38.196 0 72.544 21.216 89.608 55.37 11.228 22.566 22.582 45.572 41.098 78.196h-446.010zM646.066 399.674l-106.284-159.412c-12.39-18.588-43.176-18.588-55.566 0l-106.282 159.412-152.174-220.236c7.736-15.596 15.688-29.946 23.54-43.090h525.396c7.854 13.148 15.806 27.496 23.54 43.090l-152.17 220.236zM378.11 202.468c-18.434 0-33.738 15.27-33.738 33.716s15.302 33.73 33.738 33.73c18.436 0 33.716-15.282 33.716-33.728s-15.282-33.718-33.716-33.718zM645.24 202.468c-18.434 0-33.738 15.27-33.738 33.716s15.302 33.73 33.738 33.73 33.716-15.282 33.716-33.728c0-18.446-15.282-33.718-33.716-33.718z" />
<glyph unicode="&#xbe;" glyph-name="uniBE" d="M522.2 521.2v-175.6h290.4c-11.8-75.4-87.8-220.8-290.4-220.8-174.8 0-317.4 144.8-317.4 323.2s142.6 323.2 317.4 323.2c99.4 0 166-42.4 204-79l139 133.8c-89.2 83.6-204.8 134-343 134-283 0-512-229-512-512s229-512 512-512c295.4 0 491.6 207.8 491.6 500.2 0 33.6-3.6 59.2-8 84.8l-483.6 0.2z" />
<glyph unicode="&#xbf;" glyph-name="uniBF" d="M566.286 365.714l36.571 146.286h-145.143l-36.571-146.286h145.143zM1005.143 653.714l-32-128c-2.286-8-9.143-13.714-17.714-13.714h-186.857l-36.571-146.286h177.714c5.714 0 10.857-2.857 14.286-6.857 3.429-4.571 5.143-10.286 3.429-16l-32-128c-1.714-8-9.143-13.714-17.714-13.714h-186.857l-46.286-187.429c-2.286-8-9.714-13.714-17.714-13.714h-128c-5.714 0-11.429 2.857-14.857 6.857-3.429 4.571-4.571 10.286-3.429 16l44.571 178.286h-145.143l-46.286-187.429c-2.286-8-9.714-13.714-17.714-13.714h-128.571c-5.143 0-10.857 2.857-14.286 6.857-3.429 4.571-4.571 10.286-3.429 16l44.571 178.286h-177.714c-5.714 0-10.857 2.857-14.286 6.857-3.429 4.571-4.571 10.286-3.429 16l32 128c2.286 8 9.143 13.714 17.714 13.714h186.857l36.571 146.286h-177.714c-5.714 0-10.857 2.857-14.286 6.857-3.429 4.571-5.143 10.286-3.429 16l32 128c1.714 8 9.143 13.714 17.714 13.714h186.857l46.286 187.429c2.286 8 9.714 13.714 18.286 13.714h128c5.143 0 10.857-2.857 14.286-6.857 3.429-4.571 4.571-10.286 3.429-16l-44.571-178.286h145.143l46.286 187.429c2.286 8 9.714 13.714 18.286 13.714h128c5.143 0 10.857-2.857 14.286-6.857 3.429-4.571 4.571-10.286 3.429-16l-44.571-178.286h177.714c5.714 0 10.857-2.857 14.286-6.857 3.429-4.571 4.571-10.286 3.429-16z" />
<glyph unicode="&#xc0;" glyph-name="uniCA" horiz-adv-x="1206" d="M81.737 153.233v-195.424c0.020-12.036 9.772-21.788 21.806-21.808h151.1c12.036 0.020 21.788 9.772 21.808 21.806v343.971l-109.609-109.893c-22.013-21.997-51.693-36.325-84.687-38.629l-0.419-0.023zM351.735 304.083v-346.274c0.020-12.036 9.772-21.788 21.806-21.808h151.1c12.036 0.020 21.788 9.772 21.808 21.806v203.866c-35.575 0.642-67.609 15.292-90.919 38.65l-0.002 0.002zM621.733 183.197v-225.424c0.020-12.036 9.772-21.788 21.806-21.808h151.1c12.036 0.020 21.788 9.772 21.808 21.806v415.921l-173.155-173.155c-6.392-6.377-13.449-12.094-21.057-17.034l-0.504-0.307zM1071.801 629.329l-180.070-180.070v-491.45c0.020-12.036 9.772-21.788 21.806-21.808h151.1c12.036 0.020 21.788 9.772 21.808 21.806v657.905c-4.965 4.22-8.652 7.943-11.383 10.39zM1195.417 948.333c-7.551 7.255-17.826 11.722-29.145 11.722-0.975 0-1.941-0.033-2.899-0.098l0.13 0.007h-3.936c-70.354-3.227-140.46-6.702-210.779-9.894-0.761 0.045-1.65 0.071-2.545 0.071-11.471 0-21.951-4.246-29.954-11.251l0.053 0.045c-3.171-3.194-5.762-6.967-7.602-11.146l-0.093-0.237c-2.062-4.425-3.264-9.607-3.264-15.070 0-11.799 5.611-22.288 14.311-28.943l0.088-0.064 17.73-17.73c12.128-12.376 24.539-24.823 36.915-36.915l-425.281-425.423-190.992 190.992c-10.991 11.016-26.189 17.832-42.978 17.832s-31.987-6.816-42.977-17.831l-0.001-0.001-254.466-254.147c-11.016-10.991-17.832-26.189-17.832-42.978s6.816-31.987 17.831-42.977l11.384-11.384c10.991-11.016 26.189-17.832 42.978-17.832s31.987 6.816 42.977 17.831l199.893 199.893 190.992-190.992c11.035-11.022 26.273-17.839 43.103-17.839s32.068 6.816 43.103 17.839l479.641 479.57 54.255-54.007c6.948-8.662 17.207-14.42 28.828-15.345l0.144-0.009c6.391 0.081 12.358 1.821 17.512 4.808l-0.172-0.092c3.965 2.19 7.379 4.745 10.398 7.703l-0.008-0.008c8.143 8.914 13.131 20.83 13.131 33.911 0 0.358-0.004 0.715-0.011 1.071l0.001-0.053c1.986 45.567 4.22 91.17 6.454 136.985l3.333 68.581c0.213 1.598 0.334 3.446 0.334 5.322 0 10.783-4.011 20.63-10.622 28.129l0.040-0.046z" />
<glyph unicode="&#xc1;" glyph-name="uniCB" d="M511.983 960c-282.746-0.019-511.95-229.234-511.95-511.983 0-282.761 229.223-511.983 511.983-511.983s511.983 229.223 511.983 511.983v0c-0.865 282.424-229.591 511.138-511.936 511.983h-0.080zM691.068 652.803c42.42 0 76.807-34.388 76.807-76.807s-34.388-76.807-76.807-76.807v0c-41.992 1.046-75.762 34.815-76.806 76.709l-0.002 0.098c1.049 42.037 34.891 75.833 76.848 76.806l0.092 0.002zM332.667 652.803c41.992-1.046 75.762-34.815 76.806-76.709l0.002-0.098c-1.046-41.992-34.815-75.762-76.709-76.806l-0.098-0.002c-41.992 1.046-75.762 34.815-76.806 76.709l-0.002 0.098c1.049 42.037 34.891 75.833 76.848 76.806l0.092 0.002zM511.751 140.82c-132 0.629-244.135 84.984-286.072 202.655l-0.663 2.131h573.701c-42.611-119.789-154.743-204.129-286.659-204.753h-0.076z" />
<glyph unicode="&#xc2;" glyph-name="uniCC" horiz-adv-x="1340" d="M205.022 960v0c-13.123-0.001-25.002-5.324-33.596-13.929v0c-8.726-8.657-14.127-20.653-14.127-33.911 0-0.042 0-0.085 0-0.127v0.007-719.218c0.090-26.48 21.554-47.916 48.036-47.961h0.004c111.632-0.277 298.688-23.545 427.732-158.564v752.696c0.002 0.164 0.003 0.358 0.003 0.552 0 8.774-2.459 16.973-6.726 23.946l0.114-0.201c-106.052 170.555-309.57 196.435-421.44 196.712zM1183.118 192.821v719.218c0 0.024 0 0.051 0 0.079 0 26.389-21.347 47.792-47.715 47.882h-0.009c-111.87-0.277-315.387-26.197-421.321-196.712-4.129-6.757-6.573-14.933-6.573-23.68 0-0.217 0.002-0.433 0.004-0.649v0.033-752.656c129.044 135.019 316.060 158.287 427.732 158.564 26.404 0.134 47.77 21.514 47.882 47.911v0.011zM1292.376 794.194h-34.784v-601.492c-0.157-67.506-54.817-122.194-122.297-122.396h-0.019c-94.695-0.237-250.846-18.757-361.409-123.385 69.776 14.987 149.939 23.57 232.107 23.57 97.859 0 192.874-12.174 283.614-35.090l-7.975 1.706c3.222-0.772 6.921-1.214 10.724-1.214 26.484 0 47.954 21.466 47.961 47.948v762.352c0 0 0 0 0 0 0 26.482-21.446 47.955-47.917 48.001h-0.004zM82.745 192.702v601.492h-34.784c-26.493-0.023-47.961-21.504-47.961-48.001v0-762.193c0.007-26.483 21.477-47.949 47.961-47.949 3.803 0 7.502 0.443 11.049 1.279l-0.325-0.065c82.766 21.211 177.78 33.386 275.638 33.386 82.168 0 162.332-8.584 239.643-24.903l-7.534 1.331c-110.564 104.628-266.714 122.95-361.409 123.345-67.441 0.224-122.053 54.835-122.277 122.255v0.022z" />
<glyph unicode="&#xc3;" glyph-name="uniCD" horiz-adv-x="1602" d="M11.237 703.64c-73.352-187.66 220.796-477.938 656.995-648.392s849.224-156.418 922.534 31.119c45.649 116.778-51.042 273.278-235.655 415.741-1.406-62.82-14.065-122.29-36.028-177.023l1.204 3.399c-14.666-35.379-43.012-62.584-78.265-75.402l-0.931-0.296c-29.074-10.884-62.672-17.183-97.74-17.183-2.671 0-5.333 0.037-7.986 0.109l0.391-0.008c-150.578 9.307-290.368 46.18-417.491 105.624l7.059-2.965c-74.593 31.626-137.972 65.506-197.906 104.258l5.018-3.040c-53.208 32.382-98.020 72.853-134.2 120.263l-0.854 1.166c-19.547 24.195-31.379 55.329-31.379 89.226 0 17.217 3.052 33.72 8.645 49l-0.317-0.99c23.014 58.222 54.11 108.318 92.548 151.769l-0.467-0.538c-232.404 20.252-409.567-29.143-455.175-145.839zM1431.344 170.009c6.765 2.94 14.645 4.651 22.924 4.651 32.486 0 58.821-26.335 58.821-58.821 0-14.541-5.277-27.85-14.019-38.117l0.069 0.083c-6.765-2.94-14.645-4.651-22.924-4.651-32.486 0-58.821 26.335-58.821 58.821 0 14.541 5.277 27.85 14.019 38.117l-0.069-0.083zM651.356 184.786c9.978 18.022 28.88 30.022 50.585 30.022 9.572 0 18.6-2.334 26.544-6.464l-0.32 0.151c13.601-9.379 22.402-24.874 22.402-42.424 0-28.371-23-51.371-51.371-51.371s-51.371 23-51.371 51.371c0 6.735 1.296 13.167 3.652 19.061l-0.122-0.346zM134.313 602.997c-4.549-1.434-9.779-2.259-15.203-2.259-22.95 0-42.446 14.789-49.478 35.357l-0.109 0.368c-0.063 0.959-0.098 2.079-0.098 3.207 0 27.254 20.856 49.637 47.479 52.059l0.203 0.015c4.549 1.434 9.779 2.259 15.203 2.259 22.95 0 42.446-14.789 49.478-35.357l0.109-0.368c0.063-0.959 0.098-2.079 0.098-3.207 0-27.254-20.856-49.637-47.479-52.059l-0.203-0.015zM1135.715 297.325c65.201 0 112.538 15.971 127.316 53.511 19.941 48.795 31.515 105.419 31.515 164.745 0 246.521-199.845 446.366-446.366 446.366-188.914 0-350.417-117.358-415.582-283.145l-1.049-3.030c-56.475-144.233 454.599-378.448 704.167-378.448z" />
<glyph unicode="&#xc4;" glyph-name="uniCE" horiz-adv-x="895" d="M894.945 362.667v-426.667h-320.512v85.333h-276.821v-85.333h-297.612v426.667zM701.378 439.684c-12.142 55.608-41.826 102.916-82.857 137.050l-0.397 0.321c-11.591 10.44-24.996 19.172-39.63 25.627l-0.958 0.377c-15.009 6.462-34.033 13.198-53.521 18.842l-3.73 0.925q-35.375 10.395-52.038 16.663v135.261h4.158c2.415 1.275 5.272 2.039 8.304 2.079h0.013c2.987 2.22 6.464 3.999 10.215 5.149l0.242 0.064q8.316 3.103 12.412 5.213 16.663 4.158 27.058 6.206c5.464 2.153 11.792 3.633 18.392 4.144l0.226 0.014c11.224-0.306 21.945-1.805 32.242-4.375l-1.026 0.217q22.9-6.206 37.454-10.395l37.454-8.316c8.679-2.427 18.683-3.93 29.002-4.156l0.135-0.002q8.316 0 39.533 4.158v156.113c-11.003-3.326-24.374-6.233-38.062-8.148l-1.47-0.168c-10.454 0.228-20.459 1.731-29.996 4.36l0.859-0.202q-12.412 2.079-37.454 8.316c-10.369 3.973-22.861 7.565-35.722 10.137l-1.545 0.258c-8.019 2.309-17.288 3.804-26.851 4.152l-0.208 0.006c-2.102 0.092-4.568 0.144-7.046 0.144-28.568 0-55.515-6.936-79.251-19.215l0.964 0.453v29.044h-41.612v-320.512h-2.079q-12.412-4.158-49.959-15.515c-23.45-6.788-43.14-14.181-62.116-22.864l2.786 1.142c-15.518-7.513-28.876-16.546-40.749-27.2l0.161 0.142c-40.779-33.408-70.313-79.183-82.917-131.553l-0.337-1.661c-2.194 0.934-4.746 1.477-7.425 1.477-1.426 0-2.816-0.154-4.154-0.446l0.128 0.023c-7.172-1.776-13.424-5.004-18.696-9.371l0.077 0.062c-7.089-5.734-11.584-14.433-11.584-24.181 0-1.013 0.049-2.015 0.143-3.003l-0.010 0.126h597.333c0.085 0.863 0.134 1.864 0.134 2.878 0 9.748-4.495 18.446-11.525 24.135l-0.058 0.046c-5.913 4.815-13.422 7.88-21.628 8.312l-0.093 0.004z" />
<glyph unicode="&#xc5;" glyph-name="uniCF" horiz-adv-x="809" d="M427.31 663.272c26.021 43.224 53.247 80.605 83.357 115.421l-0.878-1.038c27.469 28.635 56.917 54.861 88.31 78.656l1.857 1.349c3.681 1.918 6.15 5.705 6.15 10.068 0 5.186-3.489 9.558-8.248 10.895l-0.080 0.019-72.12 33.718c-3.040 1.324-6.582 2.095-10.304 2.095-8.259 0-15.633-3.794-20.472-9.734l-0.038-0.048c-43.787-68.677-82.946-147.686-113.391-230.894l-2.74-8.561c-194.157 87.791-378.713-35.202-378.713-249.088 0-223.421 171.887-562.774 404.315-460.335 244.799-105.937 404.447 236.914 404.447 460.335 0 215.733-165.883 342.224-381.451 247.142zM383.827 735.656c11.598 1.352 20.704 10.469 22.028 21.956l0.011 0.116c0.155 2.977 0.243 6.464 0.243 9.972 0 53.473-20.492 102.161-54.053 138.637l0.132-0.145c-36.275 33.348-84.873 53.79-138.246 53.79-3.512 0-7.004-0.089-10.473-0.263l0.487 0.020c-11.607-1.349-20.722-10.465-22.060-21.955l-0.011-0.117c-0.159-3.017-0.25-6.549-0.25-10.103 0-53.427 20.483-102.070 54.025-138.504l-0.131 0.144c36.275-33.35 84.875-53.793 138.249-53.793 3.535 0 7.048 0.090 10.539 0.267l-0.49-0.020z" />
<glyph unicode="&#xc6;" glyph-name="uniDA" horiz-adv-x="1069" d="M70.738 594.961h118.631v-467.39h-118.631v467.39zM340.751 594.961h118.631v-467.39h-118.631v467.39zM610.802 594.961h118.631v-467.39h-118.631v467.39zM880.815 594.961h118.631v-467.39h-118.631v467.39zM1047.719 756.855h-11.385v1.897c-0.001 9.212-5.771 17.076-13.893 20.178l-0.148 0.050-480.065 179.654c-2.255 0.871-4.863 1.375-7.59 1.375s-5.335-0.504-7.738-1.425l0.148 0.050-479.989-179.617c-8.272-3.151-14.041-11.017-14.041-20.23 0-0.012 0-0.025 0-0.037v0.002-1.897h-11.385c-0.011 0-0.025 0-0.038 0-11.926 0-21.593-9.668-21.593-21.593 0 0 0 0 0 0v0-71.384c0-11.926 9.668-21.593 21.593-21.593v0h1026.125c11.926 0 21.593 9.668 21.593 21.593v0 71.384c0 11.926-9.668 21.593-21.593 21.593v0zM1047.719 76.528h-1026.125c0 0 0 0 0 0-11.926 0-21.593-9.668-21.593-21.593 0-0.040 0-0.080 0-0.12v0.006-97.227c0-11.926 9.668-21.593 21.593-21.593v0h1026.125c11.926 0 21.593 9.668 21.593 21.593v0 97.227c0 0.034 0 0.074 0 0.114 0 11.926-9.668 21.593-21.593 21.593 0 0 0 0 0 0v0z" />
<glyph unicode="&#xc7;" glyph-name="uniDB" horiz-adv-x="724" d="M719.462 90.573c-8.901 31.833-29.506 57.824-56.769 73.579l-0.589 0.314-64.021 36.526c11.473 29.311 18.123 63.248 18.123 98.739 0 0.154 0 0.308 0 0.462v-0.024c-0.003 25.054-3.275 49.343-9.412 72.465l0.444-1.967 28.741 7.816c38.458 10.715 66.206 45.431 66.206 86.628 0 49.583-40.195 89.778-89.778 89.778-8.386 0-16.504-1.15-24.204-3.3l0.632 0.151-77.847-21.143c53.793 37.427 88.803 98.602 89.741 168.005l0.002 0.144c0 1.214 0 2.429 0 3.643 54.351 17.074 93.089 66.999 93.089 125.972 0 72.78-59 131.779-131.779 131.779-46.749 0-87.812-24.343-111.206-61.044l-0.317-0.533c-26.419 9.707-56.927 15.321-88.746 15.321s-62.326-5.615-90.586-15.907l1.84 0.586c-23.712 37.227-64.772 61.565-111.516 61.565-72.78 0-131.779-59-131.779-131.779 0-58.959 38.719-108.874 92.117-125.706l0.933-0.254c0-1.214 0-2.429 0-3.643 0.952-69.551 35.972-130.725 89.094-167.702l0.679-0.448-77.691 21.143c-7.073 2.003-15.196 3.154-23.588 3.154-49.585 0-89.782-40.197-89.782-89.782 0-41.193 27.742-75.907 65.563-86.477l0.632-0.151 28.741-7.816c-5.716-21.14-8.999-45.411-8.999-70.449 0-35.661 6.661-69.766 18.806-101.139l-0.651 1.913-63.897-36.526c-37.117-21.449-61.692-60.946-61.692-106.183 0-67.504 54.723-122.226 122.226-122.226 22.266 0 43.142 5.954 61.122 16.357l-0.588-0.314 146.352 83.39c9.838-1.394 21.213-2.197 32.773-2.211h0.016c11.536 0.005 22.878 0.809 33.982 2.358l-1.287-0.147 146.352-83.39c17.39-10.091 38.264-16.046 60.53-16.046 67.483 0 122.189 54.706 122.189 122.189 0 11.505-1.59 22.638-4.562 33.192l0.207-0.861zM263.030 733.403c13.947 0 25.254-11.306 25.254-25.254s-11.306-25.254-25.254-25.254c-13.947 0-25.254 11.306-25.254 25.254 0 0.011 0 0.022 0 0.033v-0.002c0.018 13.934 11.317 25.222 25.254 25.222 0 0 0 0 0 0v0zM460.761 731.566c13.947 0 25.254-11.306 25.254-25.254s-11.306-25.254-25.254-25.254c-13.947 0-25.254 11.306-25.254 25.254v0c0.018 13.934 11.317 25.222 25.254 25.222 0 0 0 0 0 0v0zM351.37 134.821l-108.394 107.896c-15.323 15.261-24.805 36.378-24.805 59.709 0 46.538 37.727 84.265 84.265 84.265 23.207 0 44.223-9.382 59.462-24.559l-0.003 0.003c15.235 15.177 36.252 24.561 59.46 24.561 46.532 0 84.254-37.722 84.254-84.254 0-23.324-9.478-44.435-24.792-59.69l-0.003-0.003c-1.619-1.588-79.653-79.279-108.394-107.896-2.699-2.695-6.425-4.362-10.541-4.362-4.1 0-7.814 1.654-10.51 4.332l0.001-0.001zM562.056 893.456c0.003 0 0.007 0 0.011 0 36.029 0 65.236-29.207 65.236-65.236 0-26.642-15.971-49.554-38.861-59.684l-0.417-0.165c-16.278 40.808-43.191 74.477-77.347 98.562l-0.687 0.459c11.991 15.893 30.84 26.061 52.064 26.063v0zM361.895 680.373c1.122 0.059 2.435 0.093 3.756 0.093 40.436 0 73.482-31.64 75.732-71.513l0.009-0.199c-2.276-40.075-35.329-71.711-75.77-71.711-1.311 0-2.614 0.033-3.909 0.099l0.182-0.007c-1.122-0.059-2.435-0.093-3.756-0.093-40.436 0-73.482 31.64-75.732 71.513l-0.009 0.199c2.242 40.070 35.281 71.714 75.712 71.714 1.332 0 2.655-0.034 3.97-0.102l-0.184 0.008zM96.468 828.189c0 0.009 0 0.020 0 0.031 0 36.012 29.193 65.205 65.205 65.205 21.237 0 40.103-10.153 52.008-25.869l0.118-0.163c-34.832-24.544-61.743-58.2-77.515-97.524l-0.519-1.466c-23.27 10.313-39.225 33.178-39.297 59.777v0.009zM397.456 636.592c0-17.679-15.921-32.011-35.561-32.011s-35.561 14.332-35.561 32.011c0 17.679 15.921 32.011 35.561 32.011s35.561-14.332 35.561-32.011z" />
<glyph unicode="&#xc8;" glyph-name="uniDC" horiz-adv-x="786" d="M282.040 187.985c0-0.009 0-0.019 0-0.030 0-139.167 112.817-251.985 251.985-251.985s251.985 112.817 251.985 251.985c0 139.167-112.817 251.985-251.985 251.985v0c-139.095-0.153-251.814-112.862-251.985-251.938v-0.016zM492.342 247.917h59.932v-59.932h-59.932zM402.444 320.884h59.932v-59.932h-59.932zM389.499 210.010h59.932v-59.932h-59.932zM321.746 594.894c-9.266 19.232-15.564 41.607-17.628 65.195l-0.052 0.73h-188.307c-2.115-24.318-8.414-46.693-18.182-67.089l0.502 1.164zM102.154 749.938c3.384-8.031 6.532-17.712 8.906-27.693l0.264-1.314h197.027c2.638 11.295 5.786 20.976 9.64 30.29l-0.47-1.283 11.986 29.367c6.507 14.954 10.293 32.374 10.293 50.679 0 71.743-58.159 129.903-129.903 129.903s-129.903-58.159-129.903-129.903c0-18.304 3.786-35.724 10.617-51.52l-0.324 0.842zM222.048 187.985c0.063 117.825 65.378 220.38 161.762 273.495l1.613 0.815c-7.294 19.91-14.684 36.373-23.049 52.242l1.114-2.318-11.507 22.744h-284.228l-11.507-22.744c-35.538-71.502-56.334-155.723-56.334-244.802 0-3.484 0.032-6.961 0.095-10.43l-0.007 0.521c0-136.525 41.053-255.94 102.364-321.236h214.976c4.555 4.855 8.99 10.039 13.305 15.462-66.648 57.431-108.588 141.943-108.597 236.251v0.001z" />
<glyph unicode="&#xc9;" glyph-name="uniDE" horiz-adv-x="1709" d="M1165.486 539.197c-0.705-157.391-64.025-299.856-166.313-403.886l0.079 0.081c-30.517-31.882-22.722-56.938 21.313-53.723 130.43 8.307 246.555 63.57 332.916 148.891l-0.052-0.051c93.531 95.663 151.239 226.693 151.239 371.2 0 15.305-0.647 30.459-1.916 45.436l0.133-1.954c-5.772 46.918-42.595 83.711-89.031 89.387l-0.493 0.049c-11.279 0.791-24.443 1.241-37.711 1.241-55.099 0-108.383-7.77-158.816-22.274l4.049 0.996c-36.085-13.229-61.369-47.282-61.369-87.241 0-4.783 0.362-9.482 1.061-14.070l-0.064 0.514c3.168-22.309 4.976-48.077 4.976-74.267 0-0.116 0-0.232 0-0.347v0.018zM1670.704 342.183c-18.171 13.329-38.977 26.667-60.599 38.718l-3.076 1.574c-9.419 4.563-20.485 7.229-32.175 7.229-31.751 0-58.907-19.675-69.942-47.497l-0.178-0.509c-28.946-59.334-65.494-110.109-109.198-153.718l-0.010-0.010c-105.651-104.055-250.759-168.307-410.875-168.307-2.624 0-5.243 0.017-7.859 0.052l0.396-0.004c-3.567 0-7.178 0-10.833 0-5.989 0 19.376-19.111 59.756-37.166 62.731-29.387 136.218-46.537 213.711-46.537 39.292 0 77.553 4.409 114.318 12.759l-3.444-0.658c152.239 36.983 276.344 135.752 346.487 267.598l1.392 2.868c6.304 12.904 9.99 28.077 9.99 44.112 0 32.003-14.683 60.576-37.68 79.35l-0.184 0.146zM731.649 19.711c-2.155-0.029-4.7-0.045-7.248-0.045-160.182 0-305.358 64.248-411.165 168.38l0.077-0.076c-43.642 43.651-80.168 94.418-107.69 150.41l-1.473 3.318c-11.234 28.347-38.413 48.029-70.189 48.029-11.679 0-22.737-2.659-32.601-7.404l0.451 0.196c-24.643-13.581-45.436-26.935-65.288-41.496l1.657 1.159c-23.075-18.903-37.685-47.399-37.685-79.308 0-15.989 3.668-31.12 10.209-44.6l-0.266 0.608c71.464-134.783 195.599-233.595 344.252-269.764l3.628-0.746c33.319-7.691 71.579-12.099 110.869-12.099 77.495 0 150.984 17.149 216.88 47.859l-3.164-1.324c40.336 18.010 65.701 37.254 59.712 37.166zM689.375 81.581c44.035-3.127 51.83 22.018 21.269 53.943-102.107 103.948-165.368 246.352-166.101 403.53l-0.001 0.143c0 26.179 1.777 51.943 5.215 77.179l-0.327-2.935c0.62 4.030 0.974 8.68 0.974 13.412 0 39.966-25.245 74.036-60.659 87.132l-0.643 0.208c-46.766 13.758-100.494 21.674-156.071 21.674-13.26 0-26.414-0.451-39.449-1.337l1.763 0.096c-46.907-5.732-83.704-42.529-89.387-88.942l-0.049-0.494c-1.136-13.025-1.784-28.182-1.784-43.49 0-144.491 57.709-275.503 151.336-371.245l-0.095 0.098c86.568-85.556 203.142-140.917 332.536-148.899l1.473-0.073zM918.271 938.247c-17.23 13.646-39.281 21.891-63.257 21.891s-46.027-8.245-63.471-22.055l0.214 0.163c-114.926-95.694-187.542-238.814-187.542-398.895s72.616-303.201 186.706-398.218l0.836-0.677c17.236-13.632 39.284-21.868 63.257-21.868s46.021 8.235 63.472 22.032l-0.215-0.164c114.926 95.694 187.542 238.814 187.542 398.895s-72.616 303.201-186.706 398.218l-0.836 0.677z" />
<glyph unicode="&#xd0;" glyph-name="uniDF" d="M708.91 605.545c-0.028 195.739-158.712 354.407-354.455 354.407-195.76 0-354.455-158.695-354.455-354.455 0-74.587 23.038-143.792 62.385-200.89l-0.777 1.192-46.55-139.65 139.65 46.55c55.91-38.572 125.12-61.611 199.712-61.611 195.768 0 354.471 158.692 354.489 354.455v0.002zM1024 290.455c-0.011 157.83-103.135 291.57-245.678 337.529l-2.509 0.699q0.619-11.517 0.653-23.138c0-0.082 0-0.178 0-0.275 0-232.899-188.802-421.702-421.702-421.702-0.097 0-0.194 0-0.29 0h0.015c-7.735 0-15.471 0.241-23.138 0.688 46.636-145.078 180.391-248.226 338.238-248.226 74.6 0 143.818 23.039 200.929 62.39l-1.193-0.777 139.685-46.55-46.55 139.685c38.526 55.713 61.54 124.713 61.54 199.088 0 0.207 0 0.414-0.001 0.621v-0.032z" />
<glyph unicode="&#xd1;" glyph-name="uniEA" d="M995.873 99.875l-234.905 234.943c-35.593-54.799-80.95-100.155-134.001-134.682l-1.747-1.066 234.943-234.943c17.255-16.721 40.811-27.028 66.775-27.028 53.020 0 96.001 42.981 96.001 96.001 0 25.963-10.307 49.519-27.052 66.8l0.024-0.025zM768.010 575.995c0 212.080-171.925 384.005-384.005 384.005s-384.005-171.925-384.005-384.005c0-212.080 171.925-384.005 384.005-384.005v0c212.080 0 384.005 171.925 384.005 384.005v0zM384.005 287.992c-159.060 0-288.004 128.944-288.004 288.004s128.944 288.004 288.004 288.004c159.060 0 288.004-128.944 288.004-288.004v0c-0.197-158.973-129.028-287.79-287.987-287.965h-0.017zM159.989 575.995h63.988c0.109 88.316 71.674 159.88 159.979 159.989h0.010v64.026c-123.642-0.175-223.824-100.37-223.977-224.001v-0.014z" />
</font>
</defs>
</svg>
